VERSION	0.00.00	1.03.00
FES_MODE	0
BPM_DEF	175.000	175.000	175.000	175.000
MET_DEF	4	4
RESOLUTION	384
CLK_DEF	384
COMPATIBLE_CODE	MA2

BPM	0	0	175.000
MET	0	0	4	4

XST	2	0	3
SCL	2	0	3	96	1056	4
XST	6	0	4
SCR	6	0	4	96	1056	3
TTP	10	0	6	E	0	L1
TTP	10	192	5	B	0	L1
TTP	11	0	4	B	0	L1
TTP	11	192	4	E	0	L1
TTP	12	0	3	B	0	L1
TTP	12	192	2	B	0	L1
TTP	13	0	1	B	0	L1
TTP	13	0	2	E	0	L1
TTP	14	0	1	E	0	L1
TTP	14	192	0	B	0	L1
TTP	15	0	7	B	0	L1
TTP	15	192	7	E	0	L1
TTP	16	0	1	B	0	L1
TTP	16	0	2	B	0	L1
TTP	16	192	5	B	0	L1
TTP	16	192	6	B	0	L1
THO	17	0	0	192	C	0	L1
TTP	18	0	6	E	0	L1
TTP	18	96	5	B	0	L1
TTP	18	192	4	B	0	L1
TTP	19	0	2	E	0	L1
TTP	19	96	2	B	0	L1
TTP	19	192	3	B	0	L1
TTP	20	0	5	B	0	L1
TTP	20	96	6	B	0	L1
TTP	20	192	7	E	0	L1
TTP	21	0	2	B	0	L1
TTP	21	96	1	B	0	L1
TTP	21	192	1	E	0	L1
TTP	22	0	4	B	0	L1
TTP	22	0	5	B	0	L1
TTP	22	192	2	B	0	L1
TTP	22	192	3	B	0	L1
TTP	23	0	6	B	0	L1
TTP	23	0	7	E	0	L1
TTP	23	192	1	B	0	L1
TTP	23	192	1	E	0	L1
THO	24	0	0	576	C	0	L1
TAP	26	0	0
TAP	26	96	0
TAP	26	192	1
TAP	26	288	1
TAP	27	0	2
TAP	27	0	3
TAP	27	192	3
TAP	27	192	4
TAP	28	0	4
TAP	28	96	4
TAP	28	192	5
TAP	28	288	5
TAP	29	0	6
TAP	29	0	7
TAP	29	192	0
TAP	29	192	5
TAP	30	0	7
TAP	30	96	7
TAP	30	192	6
TAP	30	288	6
TAP	31	0	4
TAP	31	0	5
TAP	31	192	3
TAP	31	192	4
HLD	32	0	2	192
HLD	32	0	3	192
HLD	33	0	4	192
HLD	33	0	5	192
TAP	34	0	3
TAP	34	96	3
TAP	34	192	2
TAP	34	288	2
TAP	35	0	0
TAP	35	0	1
TAP	35	192	0
TAP	35	192	7
TAP	36	0	7
TAP	36	96	7
TAP	36	192	6
TAP	36	288	6
TAP	37	0	4
TAP	37	0	5
TAP	37	192	3
TAP	37	192	6
TAP	38	0	4
TAP	38	96	4
TAP	38	192	5
TAP	38	288	5
TAP	39	0	6
TAP	39	0	7
TAP	39	192	0
TAP	39	192	1
HLD	40	0	0	192
HLD	40	0	7	192
TAP	41	0	1
TAP	41	0	6
TAP	41	96	1
TAP	41	96	6
BRK	41	192	1
BRK	41	192	6
HLD	42	0	2	192
TAP	42	96	3
TAP	42	192	3
HLD	43	0	5	192
TAP	43	96	4
TAP	43	192	4
HLD	44	0	1	192
TAP	44	96	0
TAP	44	192	0
TAP	45	0	0
TAP	45	96	0
TAP	45	96	7
TAP	45	192	1
TAP	45	192	6
HLD	46	0	6	192
TAP	46	96	7
TAP	46	192	7
HLD	47	0	1	192
TAP	47	96	0
TAP	47	192	0
STR	48	0	0
SI_	48	0	0	96	288	3
STR	48	0	7
SI_	48	0	7	96	288	4
XTP	49	192	2
XTP	49	192	5
STR	50	0	3
SCL	50	0	3	96	384	0
STR	52	0	7
SCL	52	0	7	96	384	4
STR	54	0	3
SI_	54	0	3	96	384	7
STR	56	0	6
SCL	56	0	6	96	480	1
STR	58	0	0
SI_	58	0	0	96	144	6
STR	59	0	5
SI_	59	0	5	96	144	3
STR	60	0	2
SI_	60	0	2	96	144	0
STR	61	0	7
SI_	61	0	7	96	144	5
STR	62	0	4
SI_	62	0	4	96	192	7
STR	63	0	0
SI_	63	0	0	96	192	3
HLD	64	0	4	192
HLD	64	192	3	192
THO	65	0	0	192	C	0	L1
BRK	66	0	0
BRK	66	0	7
TAP	66	96	1
TAP	66	192	2
TAP	66	192	3
TAP	66	288	4
TAP	67	0	5
TAP	67	48	5
TAP	67	96	5
XTP	67	192	4
XTP	67	192	6
TAP	68	0	7
TAP	68	48	7
TAP	68	96	7
TAP	68	192	0
TAP	68	240	0
TAP	68	288	0
TAP	69	0	0
TAP	69	0	7
TAP	69	96	1
TAP	69	96	6
XTP	69	192	2
XTP	69	192	5
TAP	70	0	3
TAP	70	0	4
TAP	70	96	5
TAP	70	192	6
TAP	70	192	7
TAP	70	288	0
TAP	71	0	1
TAP	71	48	1
TAP	71	96	1
TAP	71	192	2
TAP	71	192	7
STR	72	0	0
SI_	72	0	0	96	288	4
STR	72	0	1
SI_	72	0	1	96	288	5
XTP	73	192	3
XTP	73	192	6
TAP	74	0	7
TAP	74	96	0
TAP	74	96	6
TAP	74	192	5
TAP	74	288	4
TAP	74	288	6
TAP	75	0	3
TAP	75	48	3
TAP	75	96	3
TAP	75	192	2
TAP	75	192	4
TAP	76	0	5
TAP	76	48	5
TAP	76	96	5
TAP	76	192	3
TAP	76	240	3
TAP	76	288	3
TAP	77	0	3
TAP	77	0	4
TAP	77	96	2
TAP	77	96	5
XTP	77	192	1
XTP	77	192	6
TAP	78	0	0
TAP	78	96	1
TAP	78	96	7
TAP	78	192	2
TAP	78	288	1
TAP	78	288	3
TAP	79	0	4
TAP	79	48	4
TAP	79	96	4
XTP	79	192	2
XTP	79	192	5
STR	80	0	6
SI_	80	0	6	96	288	2
STR	80	0	7
SI_	80	0	7	96	288	3
BRK	81	192	1
BRK	81	192	4
HLD	82	0	2	192
HLD	82	192	3	192
TAP	83	0	4
TAP	83	96	4
TAP	83	192	3
TAP	83	192	5
HLD	84	0	6	192
HLD	84	192	5	192
TAP	85	0	4
TAP	85	96	4
TAP	85	192	3
TAP	85	192	5
HLD	86	0	2	192
HLD	86	192	1	192
TAP	87	0	0
TAP	87	96	0
TAP	87	192	1
TAP	87	192	7
TAP	88	0	0
TAP	88	96	1
TAP	88	192	7
TAP	88	288	6
TAP	89	0	6
TAP	89	0	7
TAP	89	96	0
TAP	89	96	5
XTP	89	192	1
XTP	89	192	4
TAP	90	0	2
TAP	90	96	1
TAP	90	96	3
TAP	90	192	5
TAP	90	288	4
TAP	90	288	6
TAP	91	0	7
TAP	91	48	7
TAP	91	96	7
TAP	91	192	0
TAP	91	192	6
TAP	92	0	5
TAP	92	96	4
TAP	92	96	6
TAP	92	192	2
TAP	92	288	1
TAP	92	288	3
TAP	93	0	0
TAP	93	48	0
TAP	93	96	0
TAP	93	192	1
TAP	93	192	7
XTP	94	0	0
TAP	94	96	1
TAP	94	192	2
TAP	94	288	3
XTP	95	0	4
TAP	95	96	5
TAP	95	192	6
TAP	95	288	7
TAP	96	0	0
TAP	96	0	1
TAP	96	48	0
TAP	96	48	1
TAP	96	96	0
TAP	96	96	1
TAP	96	192	6
TAP	96	192	7
TAP	96	240	6
TAP	96	240	7
TAP	96	288	6
TAP	96	288	7
HLD	97	0	0	192
HLD	97	0	5	192
TTP	98	0	0	C	1	L1
TTP	98	0	2	B	0	L1
TTP	98	0	6	B	0	L1

T_REC_TAP	185
T_REC_BRK	6
T_REC_XTP	16
T_REC_HLD	21
T_REC_XHO	0
T_REC_STR	16
T_REC_BST	0
T_REC_XST	2
T_REC_TTP	39
T_REC_THO	3
T_REC_SLD	18
T_REC_ALL	306
T_NUM_TAP	258
T_NUM_BRK	6
T_NUM_HLD	24
T_NUM_SLD	18
T_NUM_ALL	306
T_JUDGE_TAP	264
T_JUDGE_HLD	104
T_JUDGE_SLD	18
T_JUDGE_ALL	386
TTM_EACHPAIRS	63
TTM_SCR_TAP	129000
TTM_SCR_BRK	15600
TTM_SCR_HLD	24000
TTM_SCR_SLD	27000
TTM_SCR_ALL	195600
TTM_SCR_S	189150
TTM_SCR_SS	195000
TTM_RAT_ACV	10030

