VERSION	0.00.00	1.03.00
FES_MODE	0
BPM_DEF	175.000	175.000	175.000	175.000
MET_DEF	4	4
RESOLUTION	384
CLK_DEF	384
COMPATIBLE_CODE	MA2

BPM	0	0	175.000
MET	0	0	4	4

HLD	10	0	3	384
HLD	12	0	4	384
HLD	14	0	3	384
HLD	16	0	4	384
TTP	18	0	3	B	0	L1
TTP	18	0	4	B	0	L1
TTP	19	0	2	B	0	L1
TTP	19	0	5	B	0	L1
TTP	20	0	1	B	0	L1
TTP	20	0	6	B	0	L1
TTP	21	0	0	B	0	L1
TTP	21	0	7	B	0	L1
THO	22	0	0	768	C	1	L1
TAP	26	0	7
TAP	26	192	7
TAP	27	0	6
TAP	27	192	6
TAP	28	0	5
TAP	28	192	5
HLD	29	0	4	192
TAP	30	0	3
TAP	30	192	3
TAP	31	0	2
TAP	31	192	2
STR	32	0	1
SI_	32	0	1	96	288	5
TAP	34	0	7
TAP	34	192	7
TAP	35	0	0
TAP	35	192	0
TAP	36	0	1
TAP	36	192	1
HLD	37	0	2	192
TAP	38	0	3
TAP	38	192	3
TAP	39	0	4
TAP	39	192	4
STR	40	0	5
SI_	40	0	5	96	288	1
TAP	42	0	0
TAP	42	192	0
TAP	43	0	0
TAP	43	0	1
TAP	43	192	0
TAP	43	192	1
TAP	44	0	7
TAP	44	192	7
TAP	45	0	6
TAP	45	0	7
TAP	45	192	6
TAP	45	192	7
TAP	46	0	5
TAP	46	192	5
TAP	47	0	4
TAP	47	0	5
TAP	47	192	4
TAP	47	192	5
STR	48	0	3
SI_	48	0	3	96	288	0
TTP	50	0	0	E	0	L1
TTP	51	0	1	E	0	L1
TTP	52	0	7	E	0	L1
TTP	53	0	2	E	0	L1
TTP	54	0	6	E	0	L1
TTP	55	0	3	E	0	L1
TTP	56	0	5	E	0	L1
TTP	57	0	4	E	0	L1
TTP	58	0	3	B	0	L1
TTP	58	0	4	B	0	L1
TTP	59	0	2	B	0	L1
TTP	59	0	5	B	0	L1
TTP	60	0	1	B	0	L1
TTP	60	0	6	B	0	L1
TTP	61	0	0	B	0	L1
TTP	61	0	7	B	0	L1
THO	62	0	0	1152	C	1	L1
TAP	66	0	0
TAP	66	96	0
TAP	66	192	0
TAP	67	0	1
TAP	67	96	1
TAP	67	192	1
TAP	68	0	2
TAP	68	96	2
TAP	68	192	2
TAP	69	0	3
TAP	69	96	3
TAP	69	192	3
TAP	69	192	4
TAP	70	0	4
TAP	70	96	4
TAP	70	192	4
TAP	71	0	5
TAP	71	96	5
TAP	71	192	5
STR	72	0	6
SI_	72	0	6	96	288	2
XTP	74	0	0
TAP	74	96	0
TAP	74	192	0
TAP	75	0	7
TAP	75	96	7
TAP	75	192	7
TAP	76	0	6
TAP	76	96	6
TAP	76	192	6
TAP	77	0	5
TAP	77	96	5
TAP	77	192	4
TAP	77	192	5
TAP	78	0	4
TAP	78	96	4
TAP	78	192	4
TAP	79	0	3
TAP	79	96	3
TAP	79	192	3
STR	80	0	2
SI_	80	0	2	96	288	6
TAP	82	0	0
TAP	82	96	0
TAP	82	192	1
TAP	82	288	1
TAP	83	0	2
TAP	83	96	2
TAP	83	192	2
TAP	83	192	3
TAP	84	0	4
TAP	84	96	4
TAP	84	192	5
TAP	84	288	5
TAP	85	0	6
TAP	85	96	6
TAP	85	192	6
TAP	85	192	7
TAP	86	0	7
TAP	86	96	7
TAP	86	192	6
TAP	86	288	6
TAP	87	0	5
TAP	87	96	5
TAP	87	192	4
TAP	87	192	5
TAP	88	0	3
TAP	88	96	3
TAP	88	192	2
TAP	88	288	2
TAP	89	0	1
TAP	89	96	1
BRK	89	192	0
BRK	89	192	1
TAP	90	0	0
TAP	90	96	0
TAP	90	192	1
TAP	90	288	1
TAP	91	0	2
TAP	91	96	2
TAP	91	192	3
TAP	91	288	3
TAP	92	0	4
TAP	92	96	4
TAP	92	192	5
TAP	92	288	5
TAP	93	0	6
TAP	93	96	6
TAP	93	192	7
TAP	93	288	0
TAP	93	288	7
STR	94	0	0
SI_	94	0	0	96	288	3
STR	94	0	7
SI_	94	0	7	96	288	4
TAP	96	0	3
TAP	96	96	3
TAP	96	192	4
TAP	96	288	4
TAP	97	0	3
TAP	97	0	4
BRK	98	0	2
BRK	98	0	5

T_REC_TAP	128
T_REC_BRK	4
T_REC_XTP	1
T_REC_HLD	6
T_REC_XHO	0
T_REC_STR	7
T_REC_BST	0
T_REC_XST	0
T_REC_TTP	24
T_REC_THO	2
T_REC_SLD	7
T_REC_ALL	179
T_NUM_TAP	160
T_NUM_BRK	4
T_NUM_HLD	8
T_NUM_SLD	7
T_NUM_ALL	179
T_JUDGE_TAP	164
T_JUDGE_HLD	80
T_JUDGE_SLD	7
T_JUDGE_ALL	251
TTM_EACHPAIRS	16
TTM_SCR_TAP	80000
TTM_SCR_BRK	10400
TTM_SCR_HLD	8000
TTM_SCR_SLD	10500
TTM_SCR_ALL	108900
TTM_SCR_S	105250
TTM_SCR_SS	108500
TTM_RAT_ACV	10036

