VERSION	0.00.00	1.03.00
FES_MODE	0
BPM_DEF	236.000	236.000	236.000	236.000
MET_DEF	4	4
RESOLUTION	384
CLK_DEF	384
COMPATIBLE_CODE	MA2

BPM	0	0	236.000
MET	0	0	4	4

STR	1	288	0
SLR	1	288	0	96	288	5
STR	1	288	4
SLR	1	288	4	96	288	1
THO	3	0	0	1152	C	1	M1
XST	3	0	7
SCL	3	0	7	96	1056	0
XHO	7	0	2	96
XHO	7	0	3	96
XHO	7	144	3	96
XHO	7	144	5	96
XHO	7	288	2	96
XHO	7	288	4	96
XHO	8	48	3	96
XHO	8	48	6	96
XTP	8	192	1
XTP	8	192	4
XTP	8	288	3
XTP	8	288	7
BRK	9	0	0
XHO	9	0	4	384
BRK	9	192	1
BRK	10	0	2
STR	10	192	3
SI_	10	192	3	96	48	7
STR	10	192	4
SI_	10	192	4	96	48	0
XTP	10	288	3
XTP	10	288	4
BRK	11	0	1
BRK	11	0	6
TAP	11	96	5
TAP	11	144	3
TAP	11	192	5
TAP	11	240	4
TAP	11	288	4
TAP	11	288	5
TAP	12	0	2
TAP	12	48	4
TAP	12	96	2
TAP	12	144	3
TAP	12	192	2
TAP	12	192	3
TAP	12	288	4
TAP	12	288	5
TAP	13	0	1
TAP	13	0	3
TAP	13	96	5
TAP	13	144	3
TAP	13	192	5
TAP	13	240	4
TAP	13	288	4
TAP	13	288	5
TAP	14	0	2
TAP	14	48	4
TAP	14	96	2
TAP	14	144	3
TAP	14	192	2
TAP	14	240	4
TAP	14	288	3
TAP	14	336	5
TAP	15	0	4
TAP	15	0	6
TAP	15	96	2
TAP	15	144	4
TAP	15	192	2
TAP	15	240	3
TAP	15	288	2
TAP	15	288	3
TAP	16	0	5
TAP	16	48	3
TAP	16	96	5
TAP	16	144	4
TAP	16	192	4
TAP	16	192	5
TAP	16	288	3
TAP	16	288	4
TAP	17	0	4
TAP	17	0	6
TAP	17	96	2
TAP	17	144	4
TAP	17	192	2
TAP	17	240	3
TAP	17	288	2
TAP	17	288	3
TAP	18	0	3
STR	18	0	4
SI_	18	0	4	96	48	0
TAP	18	96	6
TAP	18	192	7
TAP	18	216	0
TAP	18	240	7
TAP	18	264	0
BRK	18	288	7
TAP	19	0	1
TAP	19	48	1
TAP	19	96	3
TAP	19	144	3
TAP	19	192	2
TAP	19	240	2
TAP	19	288	3
TAP	19	288	4
TAP	20	0	6
TAP	20	48	6
TAP	20	96	4
TAP	20	144	4
STR	20	192	7
SI_	20	192	7	96	48	3
TAP	20	288	0
TAP	21	0	1
TAP	21	48	1
TAP	21	96	0
TAP	21	144	0
TAP	21	192	2
TAP	21	240	2
TAP	21	288	1
TAP	21	288	3
TAP	22	0	4
TAP	22	0	5
TAP	22	96	2
TAP	22	96	3
TAP	22	192	0
TAP	22	192	1
TAP	22	240	0
TAP	22	240	1
BRK	22	288	2
BRK	22	288	7
TAP	23	0	6
TAP	23	48	6
TAP	23	96	4
TAP	23	144	4
TAP	23	192	5
TAP	23	240	5
TAP	23	288	3
TAP	23	288	4
TAP	24	0	1
TAP	24	48	1
TAP	24	96	3
TAP	24	144	3
STR	24	192	0
SI_	24	192	0	96	48	4
TAP	24	288	7
XHO	25	0	3	144
XHO	25	0	6	144
XHO	25	192	1	144
XHO	25	192	4	144
XTP	26	0	3
XTP	26	0	5
XTP	26	72	2
XTP	26	72	4
XTP	26	144	3
XTP	26	144	5
TAP	26	192	0
TAP	26	216	7
TAP	26	240	0
BRK	26	288	1
BRK	26	288	6
HLD	27	0	4	96
TAP	27	0	5
TAP	27	96	3
HLD	27	144	3	96
TAP	27	240	2
STR	27	288	2
SCL	27	288	2	96	192	6
TAP	28	0	5
TAP	28	96	5
TAP	28	192	5
TAP	28	288	3
TAP	28	288	4
TAP	29	0	2
HLD	29	0	3	96
TAP	29	96	4
HLD	29	144	4	96
TAP	29	240	5
TAP	29	288	5
TAP	30	0	2
STR	30	0	6
SI_	30	0	6	96	48	4
TAP	30	96	2
TAP	30	192	2
STR	30	192	3
SI_	30	192	3	96	48	7
TAP	30	288	2
HLD	31	0	0	96
TAP	31	0	6
TAP	31	96	1
HLD	31	144	1	96
TAP	31	240	2
TAP	31	288	2
HLD	32	0	6	72
HLD	32	72	5	72
TAP	32	144	4
HLD	32	192	0	72
HLD	32	264	1	72
TAP	32	336	2
TAP	33	0	2
HLD	33	0	3	96
TAP	33	96	4
HLD	33	144	4	96
TAP	33	240	5
TAP	33	288	5
TAP	34	0	4
TAP	34	0	6
TAP	34	96	1
TAP	34	96	3
BRK	34	192	0
BRK	34	216	7
BRK	34	240	0
BRK	34	264	7
BRK	34	288	0
TAP	35	0	1
HLD	35	0	3	96
TAP	35	96	4
HLD	35	144	4	96
TAP	35	240	5
STR	35	288	5
SCR	35	288	5	96	192	1
TTP	36	0	2	B	0	M1
TTP	36	0	2	E	0	M1
TTP	36	96	2	B	0	M1
TTP	36	96	2	E	0	M1
TTP	36	192	2	B	0	M1
TTP	36	192	2	E	0	M1
TTP	36	288	2	B	0	M1
TTP	36	288	2	E	0	M1
HLD	37	0	4	96
TAP	37	0	6
TAP	37	96	3
HLD	37	144	3	96
TAP	37	240	2
TAP	37	288	2
STR	38	0	1
SI_	38	0	1	96	48	3
TTP	38	0	5	B	0	M1
TTP	38	0	6	E	0	M1
TTP	38	96	5	B	0	M1
TTP	38	96	6	E	0	M1
STR	38	192	4
SI_	38	192	4	96	48	0
TTP	38	192	5	B	0	M1
TTP	38	192	6	E	0	M1
TTP	38	288	5	B	0	M1
TTP	38	288	6	E	0	M1
TAP	39	0	1
HLD	39	0	7	96
TAP	39	96	6
HLD	39	144	6	96
TAP	39	240	5
TAP	39	288	5
HLD	40	0	0	72
HLD	40	72	7	72
TAP	40	144	6
HLD	40	192	4	72
HLD	40	264	3	72
TAP	40	336	2
STR	41	0	1
SCR	41	0	1	96	48	4
TAP	41	96	5
STR	41	144	5
SCR	41	144	5	96	48	0
TAP	41	240	1
TAP	41	288	1
STR	42	0	3
SI_	42	0	3	96	48	7
TAP	42	96	7
BRK	42	192	6
BRK	42	216	0
BRK	42	240	6
BRK	42	264	0
BRK	42	288	7
XST	43	0	0
SXR	43	0	0	96	384	2
XST	43	0	4
SXR	43	0	4	96	384	6
TAP	44	240	3
TAP	44	240	7
TAP	44	336	2
TAP	44	336	6
XST	45	0	2
SV_	45	0	2	96	192	4
XST	45	0	6
SV_	45	0	6	96	192	0
TAP	46	0	0
TAP	46	0	4
TAP	46	72	1
TAP	46	72	4
TAP	46	144	2
TAP	46	144	4
TAP	46	192	3
TAP	46	192	5
TAP	46	264	3
TAP	46	264	6
TAP	46	336	3
TAP	46	336	7
XTP	47	0	2
TAP	47	48	2
TAP	47	96	2
TAP	47	144	2
XTP	47	192	4
TAP	47	240	4
TAP	47	288	4
TAP	47	336	4
TAP	48	0	3
TAP	48	48	3
TAP	48	96	5
TAP	48	144	5
TAP	48	192	2
TAP	48	240	2
TAP	48	288	6
TAP	48	336	6
TAP	49	0	0
TAP	49	24	7
TAP	49	48	0
TAP	49	72	7
TAP	49	96	0
TAP	49	120	7
TAP	49	144	0
TAP	49	168	7
TAP	49	192	1
TAP	49	216	6
TAP	49	240	1
TAP	49	264	6
TAP	49	288	1
TAP	49	312	6
TAP	49	336	1
TAP	49	360	6
THO	50	0	0	192	C	0	M1
BRK	50	288	0
BRK	50	288	7
XST	51	0	4
SI_	51	0	4	96	48	1
XTP	51	0	6
STR	51	96	7
SI_	51	96	7	96	48	3
TAP	51	144	7
STR	51	240	0
SI_	51	240	0	96	48	2
TAP	51	288	0
STR	52	0	3
SI_	52	0	3	96	48	7
TAP	52	48	3
TAP	52	144	0
TAP	52	192	0
TAP	52	192	1
TAP	52	264	0
TAP	52	264	1
TAP	52	336	0
TAP	52	336	1
XST	53	0	2
SI_	53	0	2	96	48	7
XTP	53	0	7
STR	53	96	4
SI_	53	96	4	96	48	0
TAP	53	144	4
STR	53	240	1
SI_	53	240	1	96	48	3
TAP	53	288	1
STR	54	0	0
SI_	54	0	0	96	48	5
TAP	54	48	0
TAP	54	144	3
TAP	54	192	2
TAP	54	192	3
TAP	54	264	2
TAP	54	264	3
TAP	54	336	2
TAP	54	336	3
XTP	55	0	1
XST	55	0	3
SI_	55	0	3	96	48	6
STR	55	96	0
SI_	55	96	0	96	48	4
TAP	55	144	0
STR	55	240	7
SI_	55	240	7	96	48	5
TAP	55	288	7
STR	56	0	4
SI_	56	0	4	96	48	0
TAP	56	48	4
TAP	56	144	7
TAP	56	192	6
TAP	56	192	7
TAP	56	264	6
TAP	56	264	7
TAP	56	336	6
TAP	56	336	7
XTP	57	0	0
XST	57	0	5
SI_	57	0	5	96	48	0
STR	57	96	3
SI_	57	96	3	96	48	7
TAP	57	144	3
STR	57	240	6
SI_	57	240	6	96	48	4
TAP	57	288	6
STR	58	0	2
SI_	58	0	2	96	48	7
TAP	58	48	2
TAP	58	144	6
TAP	58	240	0
TAP	58	240	7
TAP	58	288	1
TAP	58	288	6
TAP	58	336	2
TAP	58	336	5
STR	59	0	3
SI_	59	0	3	96	48	0
STR	59	0	4
SI_	59	0	4	96	48	7
BRK	59	192	1
BRK	59	192	6
TAP	59	288	4
TAP	59	288	5
TAP	59	336	4
TAP	59	336	6
TAP	60	48	2
TAP	60	48	3
HLD	60	96	1	96
TAP	60	96	3
TTP	60	192	0	C	1	M1
TAP	60	288	0
TAP	60	288	1
TAP	60	336	0
TAP	60	336	1
TAP	61	0	2
TAP	61	0	7
TAP	61	96	3
HLD	61	96	4	96
TTP	61	192	0	C	1	M1
TAP	61	288	6
TAP	61	288	7
TAP	61	336	5
TAP	61	336	7
TAP	62	48	0
TAP	62	48	1
TAP	62	96	0
HLD	62	96	2	96
TTP	62	192	0	C	1	M1
TAP	62	288	0
TAP	62	288	7
TAP	62	336	0
TAP	62	336	7
TAP	62	360	1
TAP	62	360	6
TAP	63	0	2
TAP	63	0	5
TAP	63	96	3
HLD	63	96	4	96
TTP	63	192	0	C	1	M1
TAP	63	288	0
TAP	63	288	1
TAP	63	336	2
TAP	63	336	7
TAP	64	48	6
TAP	64	48	7
HLD	64	96	0	96
TAP	64	96	5
TTP	64	192	0	C	1	M1
TAP	64	288	1
TAP	64	288	6
TAP	65	0	5
TAP	65	24	4
TAP	65	48	5
TAP	65	72	4
TAP	65	96	5
TAP	65	192	2
TAP	65	216	3
TAP	65	240	2
TAP	65	264	3
TAP	65	288	2
STR	66	0	4
SSL	66	0	4	96	120	0
BRK	66	288	2
BRK	66	288	6
TAP	67	0	2
TAP	67	24	6
TAP	67	48	2
TAP	67	72	6
TAP	67	96	2
TAP	67	120	6
TAP	67	144	2
TAP	67	168	6
TAP	67	192	1
TAP	67	216	7
TAP	67	240	1
TAP	67	264	7
TAP	67	288	1
TAP	67	312	7
TAP	67	336	1
TAP	67	360	7
TAP	68	0	2
TAP	68	24	6
TAP	68	48	2
TAP	68	72	6
TAP	68	96	1
TAP	68	120	7
TAP	68	144	1
TAP	68	168	7
XTP	68	192	0
XTP	68	216	0
XTP	68	240	0
XTP	68	264	0
XST	68	288	0
SI_	68	288	0	96	48	4
XST	69	0	0
TTP	69	0	0	C	1	M1
SCR	69	0	0	96	1824	7
TTP	77	0	1	B	0	M1
TTP	77	0	2	B	0	M1
TTP	77	192	5	B	0	M1
TTP	77	192	6	B	0	M1
TTP	78	0	1	E	0	M1
TTP	78	64	2	E	0	M1
TTP	78	128	3	E	0	M1
TTP	78	192	7	E	0	M1
TTP	78	256	6	E	0	M1
TTP	78	320	5	E	0	M1
TTP	79	0	4	E	0	M1
TTP	79	144	0	B	0	M1
TTP	79	144	1	E	0	M1
TTP	79	144	7	B	0	M1
TTP	79	144	7	E	0	M1
TTP	79	288	3	B	0	M1
TTP	79	288	4	B	0	M1
THO	80	0	0	192	C	0	M1
TTP	80	0	1	B	0	M1
TTP	80	0	6	B	0	M1
BRK	80	192	0
HLD	81	0	2	192
HLD	81	192	3	96
HLD	81	288	4	96
HLD	82	0	5	96
HLD	82	96	6	96
HLD	82	192	7	96
TAP	82	288	0
TAP	83	0	0
STR	83	0	3
SI_	83	0	3	96	192	7
TAP	83	192	0
TAP	83	288	0
TAP	84	0	0
TAP	84	24	7
TAP	84	48	0
TAP	84	72	7
TAP	84	96	0
TAP	84	120	7
TAP	84	144	0
TAP	84	168	7
TAP	84	192	1
TAP	84	216	2
TAP	84	240	3
TAP	84	264	4
TAP	84	288	5
TAP	84	312	6
TAP	84	336	7
TAP	84	360	0
XST	85	0	1
SI_	85	0	1	96	1056	5
XST	85	0	5
SI_	85	0	5	96	1056	1
STR	88	192	3
SI_	88	192	3	96	48	1
STR	88	192	4
SI_	88	192	4	96	48	6
BRK	88	288	3
BRK	88	288	4
XTP	89	0	0
XTP	89	0	7
TAP	89	48	1
TAP	89	72	0
TAP	89	96	1
TAP	89	144	7
TAP	89	192	2
TAP	89	216	3
TAP	89	240	2
TAP	89	288	4
TAP	89	336	4
STR	90	0	1
SCR	90	0	1	96	48	3
TAP	90	48	5
STR	90	96	1
SCL	90	96	1	96	48	7
TAP	90	144	5
STR	90	192	1
SI_	90	192	1	96	48	4
TAP	90	240	5
TAP	90	288	1
TAP	90	336	5
HLD	91	0	2	48
TAP	91	0	5
TAP	91	48	6
TAP	91	72	5
HLD	91	96	4	48
TAP	91	144	7
TAP	91	168	0
HLD	91	192	1	48
TAP	91	240	7
TAP	91	264	6
HLD	91	288	5	48
TAP	91	336	3
STR	92	0	1
SI_	92	0	1	96	48	4
TAP	92	48	0
TAP	92	96	1
TAP	92	96	7
STR	92	192	6
SI_	92	192	6	96	48	3
TAP	92	240	7
TAP	92	288	0
TAP	92	288	6
XTP	93	0	0
XTP	93	0	7
TAP	93	48	6
TAP	93	72	7
TAP	93	96	6
TAP	93	144	0
TAP	93	192	5
TAP	93	216	4
TAP	93	240	5
TAP	93	288	3
TAP	93	336	3
STR	94	0	6
SCL	94	0	6	96	48	4
TAP	94	48	2
STR	94	96	6
SCR	94	96	6	96	48	0
TAP	94	144	2
STR	94	192	6
SI_	94	192	6	96	48	3
TAP	94	240	2
TAP	94	288	6
TAP	94	336	2
STR	95	0	1
SI_	95	0	1	96	48	5
TAP	95	48	1
STR	95	96	7
SI_	95	96	7	96	48	3
TAP	95	144	7
STR	95	192	0
SI_	95	192	0	96	48	4
TAP	95	240	0
TAP	95	288	6
TAP	95	336	6
TAP	96	0	3
TAP	96	0	7
HLD	96	96	1	96
TAP	96	96	5
XTP	96	192	5
TAP	96	204	4
TAP	96	216	3
TAP	96	228	2
TAP	96	240	1
TAP	96	252	0
TAP	96	264	7
TAP	96	276	6
BRK	96	288	1
BRK	96	288	5
XTP	97	0	0
XTP	97	0	7
TAP	97	48	1
TAP	97	72	3
TAP	97	96	1
TAP	97	144	2
TAP	97	144	5
TAP	97	192	6
TAP	97	216	4
TAP	97	240	6
TAP	97	288	0
TAP	97	288	7
TAP	97	336	0
HLD	97	336	7	96
XTP	98	48	0
TTP	98	56	1	E	0	M1
TTP	98	64	1	B	0	M1
TTP	98	72	2	B	0	M1
TTP	98	80	3	E	0	M1
XTP	98	144	0
TTP	98	152	0	E	0	M1
TTP	98	160	7	B	0	M1
TTP	98	168	6	B	0	M1
TTP	98	176	6	E	0	M1
XTP	98	240	3
XTP	98	240	5
XTP	98	336	2
XTP	98	336	4
XTP	99	0	2
XHO	99	0	4	48
TAP	99	48	1
TAP	99	72	2
HLD	99	96	3	48
TAP	99	144	0
TAP	99	168	7
HLD	99	192	6	48
TAP	99	240	0
TAP	99	264	1
HLD	99	288	2	48
TAP	99	336	4
STR	100	0	6
SI_	100	0	6	96	48	3
TAP	100	48	7
TAP	100	96	0
TAP	100	96	6
STR	100	192	1
SI_	100	192	1	96	48	4
TAP	100	240	0
BRK	100	288	1
TAP	100	288	7
XTP	101	0	3
XTP	101	0	6
XTP	101	96	1
XTP	101	96	4
XHO	101	192	4	48
XHO	101	192	6	48
HLD	101	264	3	48
HLD	101	264	5	48
TAP	101	336	2
TAP	101	336	4
XHO	102	0	1	48
XHO	102	0	3	48
HLD	102	72	2	48
HLD	102	72	4	48
TAP	102	144	3
TAP	102	144	5
TAP	102	192	7
TAP	102	216	6
TAP	102	240	5
TAP	102	264	4
TAP	102	288	1
TAP	102	312	2
TAP	102	336	3
TAP	102	360	4
XHO	103	0	6	72
TAP	103	72	7
TAP	103	144	0
TAP	103	144	5
XHO	103	192	1	72
TAP	103	264	0
TAP	103	336	2
TAP	103	336	7
BST	104	0	0
SF_	104	0	0	96	96	4
BRK	104	0	4
BRK	104	288	2
BRK	104	288	6
XST	105	0	3
SV_	105	0	3	96	144	1
XST	105	0	7
SV_	105	0	7	96	144	5
XTP	105	288	2
XTP	105	288	6
XTP	105	336	0
XTP	105	336	4
XST	106	96	1
SI_	106	96	1	96	48	4
XST	106	96	5
SI_	106	96	5	96	48	0
XTP	106	192	1
XTP	106	192	5
BRK	106	288	2
BRK	106	288	6
STR	107	0	1
SI_	107	0	1	96	48	5
TAP	107	48	1
STR	107	96	0
SI_	107	96	0	96	48	4
TAP	107	144	0
STR	107	192	7
SI_	107	192	7	96	48	3
TAP	107	240	7
STR	107	288	6
SI_	107	288	6	96	48	2
TAP	107	336	6
STR	108	0	0
SI_	108	0	0	96	48	4
SI_	108	0	0	96	48	5
STR	108	192	7
SI_	108	192	7	96	48	2
SI_	108	192	7	96	48	3
TAP	109	0	0
HLD	109	0	4	96
TAP	109	96	0
HLD	109	144	5	96
TAP	109	192	0
TAP	109	288	0
TAP	109	288	3
HLD	110	0	0	72
HLD	110	72	1	72
TAP	110	144	2
HLD	110	192	4	72
HLD	110	264	5	72
TAP	110	336	6
HLD	111	0	3	96
TAP	111	0	7
TAP	111	96	7
HLD	111	144	2	96
TAP	111	192	7
TAP	111	288	4
TAP	111	288	7
TTP	112	0	4	B	0	M1
TTP	112	0	4	E	0	M1
TTP	112	0	5	B	0	M1
TTP	112	96	0	B	0	M1
TTP	112	96	1	B	0	M1
TTP	112	96	2	E	0	M1
BRK	112	192	6
BRK	112	216	7
BRK	112	240	6
BRK	112	264	7
BRK	112	288	6
STR	113	0	3
SI_	113	0	3	96	48	7
TAP	113	48	3
TAP	113	96	4
TTP	113	97	0	C	1	M1
TAP	113	144	4
STR	113	192	6
SI_	113	192	6	96	48	2
TAP	113	240	6
TAP	113	288	0
TTP	113	289	0	C	1	M1
TAP	113	336	0
STR	114	0	1
SI_	114	0	1	96	48	5
TAP	114	48	1
TAP	114	96	7
TTP	114	97	0	C	1	M1
TAP	114	144	7
TAP	114	192	6
XTP	114	240	2
XTP	114	240	6
XTP	114	336	0
XTP	114	336	4
TAP	115	48	3
TAP	115	72	4
TAP	115	96	3
XTP	115	144	7
TTP	115	152	7	E	0	M1
TTP	115	160	6	B	0	M1
TTP	115	168	5	B	0	M1
TTP	115	176	5	E	0	M1
XTP	115	240	7
TTP	115	248	0	E	0	M1
TTP	115	256	0	B	0	M1
TTP	115	264	1	B	0	M1
TTP	115	272	2	E	0	M1
XST	115	336	4
SCR	115	336	4	96	144	2
XHO	116	0	3	96
STR	116	192	3
SV_	116	192	3	96	48	0
SV_	116	192	3	96	48	6
BRK	116	288	3
STR	117	0	7
SI_	117	0	7	96	48	3
TAP	117	48	7
STR	117	96	2
SI_	117	96	2	96	48	6
TAP	117	144	2
STR	117	192	5
SI_	117	192	5	96	48	1
TAP	117	240	5
STR	117	288	0
SI_	117	288	0	96	48	5
TAP	117	336	0
XHO	118	0	6	72
XHO	118	72	3	72
XTP	118	144	7
XHO	118	192	1	48
XHO	118	192	6	48
TTP	118	248	2	E	0	M1
TTP	118	248	6	E	0	M1
TTP	118	256	2	B	0	M1
TTP	118	256	5	B	0	M1
TTP	118	264	3	B	0	M1
TTP	118	264	4	B	0	M1
TTP	118	272	4	E	0	M1
XTP	119	0	0
TAP	119	24	7
TAP	119	48	0
TAP	119	72	7
TAP	119	96	1
TAP	119	120	6
TAP	119	144	1
TAP	119	168	6
XTP	119	192	2
TAP	119	216	5
TAP	119	240	2
TAP	119	264	5
TAP	119	288	1
TAP	119	312	6
TAP	119	336	1
TAP	119	360	6
TAP	120	0	0
TAP	120	12	1
TAP	120	24	2
TAP	120	36	3
TAP	120	48	4
TAP	120	60	5
TAP	120	72	6
TAP	120	84	7
BRK	120	96	0
TTP	120	96	0	C	1	M1
BRK	120	192	7
BRK	120	216	7
BRK	120	240	7
BRK	120	264	7
BRK	120	288	7
TAP	121	0	0
TAP	121	0	5
TAP	121	96	0
TAP	121	96	5
TAP	121	144	4
TAP	121	192	0
TAP	121	240	2
TAP	121	288	0
TAP	121	288	3
TAP	122	0	0
TAP	122	0	6
TAP	122	48	5
TAP	122	96	0
TAP	122	144	3
TAP	122	192	0
TAP	122	192	4
TAP	122	288	0
TAP	122	288	6
TAP	123	0	2
TAP	123	0	7
TAP	123	96	2
TAP	123	96	7
TAP	123	144	3
TAP	123	192	7
TAP	123	240	5
TAP	123	288	4
TAP	123	288	7
TAP	124	0	1
TAP	124	0	7
TAP	124	48	2
TAP	124	96	7
TAP	124	144	4
XTP	124	192	3
XTP	124	192	7
XTP	124	240	3
XTP	124	240	7
XTP	124	336	1
XTP	124	336	6
XHO	125	0	3	48
XHO	125	0	5	48
HLD	125	72	2	48
HLD	125	72	4	48
HLD	125	144	1	48
HLD	125	144	3	48
HLD	125	216	0	48
HLD	125	216	7	48
TTP	125	312	0	E	0	M1
HLD	125	312	6	48
HLD	126	0	2	48
HLD	126	0	5	48
TTP	126	72	0	C	0	M1
HLD	126	72	1	48
HLD	126	144	0	48
HLD	126	144	7	48
TTP	126	216	4	E	0	M1
HLD	126	216	6	48
BRK	126	288	0
BRK	126	288	7
XTP	127	0	2
XTP	127	0	6
TAP	127	48	2
TAP	127	48	6
XTP	127	96	1
XTP	127	96	5
TAP	127	144	1
TAP	127	144	5
XTP	127	192	0
TAP	127	216	4
TAP	127	240	0
TAP	127	264	4
XTP	127	288	0
TAP	127	312	4
TAP	127	336	0
TAP	127	360	4
BRK	128	0	0
TAP	128	12	1
TAP	128	24	2
TAP	128	36	3
TAP	128	48	4
TAP	128	60	5
TAP	128	72	6
TAP	128	84	7
BRK	128	96	0
TAP	128	108	1
TAP	128	120	2
TAP	128	132	3
TAP	128	144	4
TAP	128	156	5
TAP	128	168	6
TAP	128	180	7
BST	128	192	0
SV_	128	192	0	96	48	3
SV_	128	192	0	96	48	5
XTP	128	288	0
BRK	129	0	2
BRK	129	0	6

T_REC_TAP	540
T_REC_BRK	55
T_REC_XTP	68
T_REC_HLD	67
T_REC_XHO	27
T_REC_STR	61
T_REC_BST	2
T_REC_XST	18
T_REC_TTP	77
T_REC_THO	3
T_REC_SLD	85
T_REC_ALL	1003
T_NUM_TAP	764
T_NUM_BRK	57
T_NUM_HLD	97
T_NUM_SLD	85
T_NUM_ALL	1003
T_JUDGE_TAP	821
T_JUDGE_HLD	199
T_JUDGE_SLD	85
T_JUDGE_ALL	1105
TTM_EACHPAIRS	172
TTM_SCR_TAP	382000
TTM_SCR_BRK	148200
TTM_SCR_HLD	97000
TTM_SCR_SLD	127500
TTM_SCR_ALL	754700
TTM_SCR_S	726550
TTM_SCR_SS	749000
TTM_RAT_ACV	10076

