VERSION	0.00.00	1.03.00
FES_MODE	0
BPM_DEF	236.000	236.000	236.000	236.000
MET_DEF	4	4
RESOLUTION	384
CLK_DEF	384
COMPATIBLE_CODE	MA2

BPM	0	0	236.000
MET	0	0	4	4

STR	3	0	5
SCL	3	0	5	96	288	2
STR	5	0	2
SCR	5	0	2	96	288	5
HLD	7	0	4	96
HLD	7	0	6	96
HLD	7	144	3	96
HLD	7	144	5	96
HLD	7	288	2	96
HLD	7	288	4	96
HLD	8	48	1	96
HLD	8	48	3	96
TAP	8	192	0
TAP	8	192	7
TAP	8	288	1
HLD	8	288	6	576
HLD	9	0	0	96
HLD	9	192	1	96
HLD	10	0	2	96
TAP	10	192	3
TAP	10	192	4
BRK	10	288	1
BRK	10	288	6
TAP	11	0	4
HLD	11	0	5	1104
TAP	11	96	4
TAP	11	192	4
TAP	11	288	4
TAP	12	0	4
TAP	12	96	3
TAP	12	144	3
TAP	12	192	3
TAP	12	288	4
TAP	13	0	2
TAP	13	96	3
TAP	13	192	1
TAP	13	288	2
TAP	14	0	3
TAP	14	0	4
TAP	14	96	3
TAP	14	96	4
TAP	14	144	3
TAP	14	144	4
TAP	14	192	3
TAP	14	192	4
XTP	14	288	2
XTP	14	288	5
HLD	15	0	2	1056
TAP	15	0	3
TAP	15	96	3
TAP	15	192	3
TAP	15	288	3
TAP	16	0	3
TAP	16	96	4
TAP	16	144	4
TAP	16	192	4
TAP	16	288	3
TAP	17	0	5
TAP	17	96	4
TAP	17	192	6
TAP	17	288	7
XTP	18	0	0
XTP	18	0	7
XTP	18	96	0
XTP	18	96	7
XTP	18	192	1
XTP	18	192	6
HLD	19	0	4	48
HLD	19	0	5	1104
HLD	19	96	4	48
HLD	19	192	4	48
HLD	19	288	4	48
HLD	20	0	4	48
TAP	20	96	3
TAP	20	144	3
TAP	20	192	3
HLD	20	288	4	48
HLD	21	0	2	48
HLD	21	96	3	48
HLD	21	192	1	48
HLD	21	288	2	48
HLD	22	0	3	48
HLD	22	0	4	48
TAP	22	96	3
TAP	22	96	4
TAP	22	144	3
TAP	22	144	4
TAP	22	192	3
TAP	22	192	4
XTP	22	288	2
XTP	22	288	5
HLD	23	0	0	48
HLD	23	0	1	432
HLD	23	96	0	48
HLD	23	192	0	48
HLD	23	288	0	48
HLD	24	0	0	48
TAP	24	96	7
TAP	24	144	7
TAP	24	192	7
XTP	24	288	1
XTP	24	288	6
HLD	25	0	0	144
HLD	25	0	7	144
HLD	25	192	0	144
HLD	25	192	7	144
BRK	26	0	1
BRK	26	0	6
TAP	26	192	0
TAP	26	240	0
TAP	26	288	7
TAP	26	336	7
TAP	27	0	1
TAP	27	48	3
TAP	27	96	2
TAP	27	144	4
TAP	27	192	3
TAP	27	240	3
TAP	27	288	5
TAP	27	336	5
TAP	28	0	4
TAP	28	96	3
TAP	28	96	5
TAP	28	192	2
TAP	28	288	1
TAP	28	288	3
TAP	29	0	6
TAP	29	48	6
TAP	29	96	4
TAP	29	144	4
TAP	29	192	5
TAP	29	240	3
TAP	29	288	4
TAP	29	336	2
TAP	30	0	3
TAP	30	48	3
TAP	30	96	1
TAP	30	96	3
TAP	30	192	4
TAP	30	192	5
XTP	30	288	3
XTP	30	288	6
TAP	31	0	1
TAP	31	48	1
TAP	31	96	7
TAP	31	144	0
TAP	31	192	6
TAP	31	240	6
TAP	31	288	0
TAP	31	288	6
HLD	32	0	1	72
HLD	32	72	2	72
TAP	32	144	3
HLD	32	192	6	72
HLD	32	264	5	72
TAP	32	336	4
HLD	33	0	2	96
TAP	33	96	6
HLD	33	144	6	96
TAP	33	240	0
TAP	33	288	0
TAP	34	0	7
TAP	34	48	7
TAP	34	96	0
TAP	34	144	7
BRK	34	192	1
BRK	34	192	6
TAP	35	0	6
TAP	35	48	6
TAP	35	96	4
TAP	35	144	4
TAP	35	192	5
TAP	35	240	3
TAP	35	288	4
TAP	35	336	2
TAP	36	0	3
TAP	36	96	2
TAP	36	96	4
TAP	36	192	5
TAP	36	288	4
TAP	36	288	6
TAP	37	0	1
TAP	37	48	3
TAP	37	96	2
TAP	37	144	4
TAP	37	192	3
TAP	37	240	3
TAP	37	288	5
TAP	37	336	5
TAP	38	0	4
TAP	38	48	4
TAP	38	96	4
TAP	38	96	6
TAP	38	192	6
TAP	38	192	7
XTP	38	288	0
XTP	38	288	5
TAP	39	0	6
TAP	39	48	6
TAP	39	96	0
TAP	39	144	7
TAP	39	192	1
TAP	39	240	1
TAP	39	288	1
TAP	39	288	7
HLD	40	0	6	72
HLD	40	72	5	72
TAP	40	144	4
HLD	40	192	1	72
HLD	40	264	2	72
TAP	40	336	3
HLD	41	0	5	96
TAP	41	96	0
HLD	41	144	0	96
TAP	41	240	7
TAP	41	288	7
TAP	42	0	0
TAP	42	0	6
TAP	42	96	3
TAP	42	96	4
BRK	42	192	2
BRK	42	192	6
STR	43	0	0
SCR	43	0	0	96	528	6
STR	45	0	7
SCL	45	0	7	96	528	1
STR	47	0	0
SCR	47	0	0	96	192	3
STR	48	0	4
SCR	48	0	4	96	192	7
STR	49	0	0
SI_	49	0	0	96	96	3
STR	49	192	4
SI_	49	192	4	96	96	7
TAP	50	0	0
TAP	50	96	0
XTP	50	192	1
XTP	50	192	6
TAP	51	0	4
TAP	51	0	5
TAP	51	96	4
TAP	51	96	5
TAP	51	192	4
TAP	51	192	6
HLD	51	288	5	96
TAP	52	0	4
HLD	52	48	4	96
TAP	52	144	6
TAP	52	192	4
TAP	52	192	6
TAP	52	264	3
TAP	52	264	4
TAP	52	336	1
TAP	52	336	3
TAP	53	0	2
TAP	53	48	2
TAP	53	96	2
TAP	53	192	1
TAP	53	192	3
HLD	53	288	2	96
TAP	54	0	3
HLD	54	48	3	96
TAP	54	144	1
TAP	54	192	1
TAP	54	192	3
TAP	54	264	3
TAP	54	264	4
TAP	54	336	4
TAP	54	336	6
TAP	55	0	4
TAP	55	0	6
TAP	55	96	5
TAP	55	192	4
TAP	55	192	6
HLD	55	288	5	96
TAP	56	0	7
HLD	56	48	7	96
TAP	56	144	6
TAP	56	192	6
TAP	56	192	7
TAP	56	264	0
TAP	56	264	7
TAP	56	336	0
TAP	56	336	1
TAP	57	0	7
TAP	57	48	7
TAP	57	96	7
TAP	57	192	0
TAP	57	240	0
TAP	57	288	0
TAP	58	0	0
TAP	58	0	7
TAP	58	96	0
TAP	58	96	7
XTP	58	192	1
XTP	58	192	6
TAP	59	0	2
TAP	59	0	3
TAP	59	96	0
TAP	59	96	4
TAP	59	192	1
TAP	59	240	2
HLD	59	288	2	96
TAP	60	0	3
HLD	60	48	3	96
TAP	60	144	1
TAP	60	192	1
TAP	60	192	3
TAP	60	264	3
TAP	60	264	4
TAP	60	336	4
TAP	60	336	6
TAP	61	0	5
TAP	61	48	5
TAP	61	96	5
TAP	61	192	6
TAP	61	240	5
HLD	61	288	5	96
TAP	62	0	4
HLD	62	48	4	96
TAP	62	144	6
TAP	62	192	4
TAP	62	192	6
TAP	62	264	3
TAP	62	264	4
TAP	62	336	1
TAP	62	336	3
TAP	63	0	1
TAP	63	0	3
TAP	63	96	2
TAP	63	96	3
TAP	63	192	1
TAP	63	240	2
HLD	63	288	2	96
TAP	64	0	0
HLD	64	48	0	96
TAP	64	144	1
TAP	64	192	0
TAP	64	192	1
TAP	64	264	0
TAP	64	264	7
TAP	64	336	6
TAP	64	336	7
TAP	65	0	0
TAP	65	48	0
TAP	65	96	0
TAP	65	192	7
TAP	65	240	7
TAP	65	288	7
TAP	66	0	1
HLD	66	0	6	384
TAP	67	0	0
TAP	67	24	1
TAP	67	48	2
TAP	67	72	3
TAP	67	96	4
TAP	67	120	5
TAP	67	144	6
TAP	67	168	7
TAP	67	192	0
TAP	67	216	1
TAP	67	240	2
TAP	67	264	3
TAP	67	288	4
TAP	67	312	5
TAP	67	336	6
TAP	67	360	7
TAP	68	0	0
TAP	68	24	1
TAP	68	48	2
TAP	68	72	3
TAP	68	96	4
TAP	68	120	5
TAP	68	144	6
TAP	68	168	7
TAP	68	192	0
TAP	68	216	1
TAP	68	240	2
TAP	68	264	3
TAP	68	288	4
TAP	68	312	5
TAP	68	336	6
TAP	68	360	7
BRK	69	0	0
BRK	69	0	4
HLD	77	0	5	384
TAP	77	192	4
HLD	78	0	3	384
TAP	78	144	4
TAP	78	192	4
HLD	79	0	5	384
TAP	79	192	4
HLD	80	0	2	192
TAP	80	144	3
TAP	80	192	3
XTP	81	0	3
XTP	81	0	4
TAP	81	192	5
TAP	81	288	4
TAP	82	0	3
TAP	82	96	2
TAP	82	192	3
TAP	82	288	4
XTP	83	0	2
XTP	83	0	5
TAP	83	192	3
TAP	83	288	4
TAP	84	0	5
TAP	84	96	6
TAP	84	192	7
TAP	84	288	0
TAP	84	288	6
BST	85	0	1
SI_	85	0	1	96	1056	5
BST	85	0	5
SI_	85	0	5	96	1056	1
TAP	88	192	0
TAP	88	192	7
TAP	88	240	0
TAP	88	240	7
BRK	88	288	1
BRK	88	288	6
TAP	89	0	0
STR	89	0	1
SI_	89	0	1	96	48	4
TAP	89	96	0
STR	89	192	6
SI_	89	192	6	96	48	3
TAP	89	192	7
TAP	89	288	7
TAP	90	0	0
TAP	90	0	1
TAP	90	96	6
TAP	90	96	7
TAP	90	192	1
TAP	90	192	3
TAP	90	288	4
TAP	90	288	6
STR	91	0	6
SI_	91	0	6	96	48	3
TAP	91	0	7
TAP	91	96	7
TAP	91	192	0
STR	91	192	1
SI_	91	192	1	96	48	4
TAP	91	288	0
HLD	92	0	7	72
HLD	92	72	6	72
TAP	92	144	5
TAP	92	192	0
TAP	92	240	0
BRK	92	288	1
BRK	92	288	6
TAP	93	0	0
STR	93	0	1
SI_	93	0	1	96	48	4
TAP	93	96	0
STR	93	192	6
SI_	93	192	6	96	48	3
TAP	93	192	7
TAP	93	288	7
TAP	94	0	0
TAP	94	0	1
TAP	94	96	6
TAP	94	96	7
TAP	94	192	1
TAP	94	192	3
TAP	94	288	4
TAP	94	288	6
STR	95	0	7
SI_	95	0	7	96	48	5
STR	95	96	0
SI_	95	96	0	96	48	4
STR	95	192	7
SI_	95	192	7	96	48	3
TAP	95	288	0
HLD	96	0	1	72
HLD	96	72	2	72
TAP	96	144	3
BRK	96	192	7
BRK	96	240	7
BRK	96	288	1
BRK	96	288	6
STR	97	0	6
SI_	97	0	6	96	48	2
TAP	97	0	7
TAP	97	96	1
TAP	97	192	1
STR	97	192	7
SI_	97	192	7	96	48	4
TAP	97	288	0
TAP	98	0	6
TAP	98	0	7
TAP	98	96	0
TAP	98	96	1
TAP	98	192	4
TAP	98	192	6
TAP	98	288	1
TAP	98	288	3
TAP	99	0	0
STR	99	0	1
SI_	99	0	1	96	48	5
TAP	99	96	6
STR	99	192	0
SI_	99	192	0	96	48	3
TAP	99	192	6
TAP	99	288	7
HLD	100	0	7	72
HLD	100	72	5	72
TAP	100	144	4
HLD	100	192	0	72
HLD	100	264	2	72
TAP	100	336	3
TAP	101	0	2
TAP	101	0	6
TAP	101	96	0
TAP	101	96	7
HLD	101	192	4	72
HLD	101	264	6	72
TAP	101	336	7
HLD	102	0	3	72
HLD	102	72	1	72
TAP	102	144	0
TAP	102	192	6
TAP	102	240	6
XTP	102	288	0
XTP	102	288	5
HLD	103	0	1	72
HLD	103	72	2	72
TAP	103	144	3
TAP	103	192	3
TAP	103	192	4
TAP	103	288	1
TAP	103	288	6
TAP	104	0	0
TAP	104	24	7
TAP	104	48	0
TAP	104	72	7
TAP	104	96	0
TAP	104	120	7
TAP	104	144	0
TAP	104	168	7
BRK	104	192	0
BRK	104	288	1
BRK	104	288	6
HLD	105	0	3	384
HLD	105	0	4	384
TTP	106	96	0	C	1	M1
TTP	106	96	2	B	0	M1
TTP	106	96	5	B	0	M1
TAP	106	192	0
TAP	106	192	7
TAP	106	288	1
TAP	106	288	6
STR	107	0	2
SCL	107	0	2	96	72	7
TAP	107	96	6
STR	107	192	6
SCL	107	192	6	96	72	3
TAP	107	288	0
HLD	108	0	0	96
TAP	108	96	7
TAP	108	192	2
TAP	108	192	5
BRK	108	288	0
STR	109	0	5
SCR	109	0	5	96	72	0
TAP	109	96	1
STR	109	192	1
SCR	109	192	1	96	72	4
TAP	109	288	7
HLD	110	0	6	72
HLD	110	72	5	72
TAP	110	144	4
TAP	110	192	2
HLD	110	240	2	96
TAP	110	336	3
TAP	111	0	3
TAP	111	96	1
TAP	111	144	0
TAP	111	144	2
TAP	111	240	6
TAP	111	288	5
TAP	111	288	7
XTP	112	0	3
XTP	112	0	4
XTP	112	96	1
XTP	112	96	6
BRK	112	192	0
BRK	112	192	4
BRK	112	288	2
BRK	112	288	6
STR	113	0	5
SCR	113	0	5	96	72	0
TAP	113	96	0
STR	113	192	1
SCR	113	192	1	96	72	4
TAP	113	288	7
STR	114	0	6
SCL	114	0	6	96	72	3
TAP	114	96	3
STR	114	192	2
SCL	114	192	2	96	72	7
TAP	114	288	7
TAP	115	0	5
TAP	115	96	2
TAP	115	144	1
TAP	115	144	3
TAP	115	240	5
TAP	115	288	4
TAP	115	288	6
HLD	116	0	0	144
HLD	116	0	7	144
BRK	116	192	1
BRK	116	192	6
TAP	117	0	3
TAP	117	96	2
TAP	117	96	3
TAP	117	192	4
TAP	117	288	4
TAP	117	288	5
TAP	118	0	2
TAP	118	48	2
TAP	118	96	5
TAP	118	144	5
TAP	118	192	1
TAP	118	240	1
TAP	118	288	6
TAP	118	336	6
TAP	119	0	0
TAP	119	48	0
TAP	119	96	0
TAP	119	144	0
TAP	119	192	7
TAP	119	240	7
TAP	119	288	7
TAP	119	336	7
TAP	120	0	0
TAP	120	0	7
TAP	120	48	0
TAP	120	48	7
TAP	120	96	0
TAP	120	96	7
TAP	120	144	0
TAP	120	144	7
BRK	120	192	1
BRK	120	192	6
TAP	121	0	4
TAP	121	0	5
TAP	121	96	4
TAP	121	96	5
TAP	121	192	6
TAP	121	240	6
TAP	121	288	5
TAP	122	0	2
TAP	122	0	3
TAP	122	96	2
TAP	122	96	3
TAP	122	192	1
TAP	122	240	1
TAP	122	288	2
TAP	123	0	4
TAP	123	0	6
TAP	123	96	4
TAP	123	96	6
TAP	123	192	7
TAP	123	240	7
TAP	123	288	6
TAP	124	0	1
TAP	124	0	3
TAP	124	96	1
TAP	124	96	3
TAP	124	192	0
TAP	124	240	0
TAP	124	288	1
TAP	125	0	4
TAP	125	0	5
TAP	125	96	6
TAP	125	192	2
TAP	125	192	3
TAP	125	288	1
TAP	126	0	4
TAP	126	0	6
TAP	126	96	7
TAP	126	192	1
TAP	126	192	3
TAP	126	288	0
TAP	127	0	6
TAP	127	48	6
TAP	127	96	4
TAP	127	144	4
TAP	127	192	3
TAP	127	240	3
TAP	127	288	1
TAP	127	336	1
TAP	128	0	7
TAP	128	48	7
TAP	128	96	5
TAP	128	144	5
TAP	128	192	3
TAP	128	240	3
STR	128	288	1
SI_	128	288	1	96	24	5
BRK	129	0	7

T_REC_TAP	488
T_REC_BRK	31
T_REC_XTP	30
T_REC_HLD	88
T_REC_XHO	0
T_REC_STR	30
T_REC_BST	2
T_REC_XST	0
T_REC_TTP	3
T_REC_THO	0
T_REC_SLD	32
T_REC_ALL	704
T_NUM_TAP	551
T_NUM_BRK	33
T_NUM_HLD	88
T_NUM_SLD	32
T_NUM_ALL	704
T_JUDGE_TAP	584
T_JUDGE_HLD	282
T_JUDGE_SLD	32
T_JUDGE_ALL	898
TTM_EACHPAIRS	149
TTM_SCR_TAP	275500
TTM_SCR_BRK	85800
TTM_SCR_HLD	88000
TTM_SCR_SLD	48000
TTM_SCR_ALL	497300
TTM_SCR_S	479200
TTM_SCR_SS	494000
TTM_RAT_ACV	10066

