VERSION	0.00.00	1.03.00
FES_MODE	0
BPM_DEF	236.000	236.000	236.000	236.000
MET_DEF	4	4
RESOLUTION	384
CLK_DEF	384
COMPATIBLE_CODE	MA2

BPM	0	0	236.000
MET	0	0	4	4

HLD	3	0	5	384
HLD	4	0	4	384
HLD	5	0	3	384
TAP	6	0	2
HLD	7	0	0	192
HLD	7	0	1	192
HLD	8	0	6	192
HLD	8	0	7	192
XTP	9	0	0
XTP	9	192	1
XTP	10	0	2
TAP	10	96	2
BRK	10	192	1
BRK	10	192	7
TAP	11	0	2
TAP	11	96	2
TAP	11	192	2
TAP	11	288	2
TAP	12	0	3
TAP	12	96	3
TAP	12	192	3
TAP	12	288	3
TAP	13	0	4
TAP	13	96	4
TAP	13	192	4
TAP	13	288	4
TAP	14	0	5
TAP	14	96	5
TAP	14	192	4
TAP	14	192	5
TAP	15	0	6
TAP	15	96	6
TAP	15	192	6
TAP	15	288	6
TAP	16	0	7
TAP	16	96	7
TAP	16	192	7
TAP	16	288	7
TAP	17	0	0
TAP	17	96	0
TAP	17	192	0
TAP	17	288	0
HLD	18	0	0	96
HLD	18	0	7	96
XTP	18	192	1
XTP	18	192	6
TAP	19	0	2
TAP	19	96	2
TAP	19	192	4
TAP	19	288	4
TAP	20	0	2
TAP	20	96	2
TAP	20	192	2
TAP	20	192	3
TAP	21	0	5
TAP	21	96	5
TAP	21	192	3
TAP	21	288	3
TAP	22	0	5
TAP	22	96	5
TAP	22	192	4
TAP	22	192	5
TAP	23	0	6
TAP	23	96	6
TAP	23	192	0
TAP	23	288	0
TAP	24	0	6
TAP	24	96	6
TAP	24	192	6
TAP	24	192	7
STR	25	0	0
SI_	25	0	0	96	288	4
STR	25	0	7
SI_	25	0	7	96	288	3
BRK	26	192	2
BRK	26	192	5
HLD	27	0	1	192
HLD	27	192	3	192
TAP	28	0	2
TAP	28	96	2
TAP	28	192	2
HLD	29	0	5	192
HLD	29	192	4	192
TAP	30	0	6
TAP	30	96	6
TAP	30	192	4
TAP	30	192	6
HLD	31	0	5	192
TAP	31	192	4
TAP	31	288	4
TAP	32	0	3
TAP	32	96	3
TAP	32	192	2
TAP	32	192	4
HLD	33	0	2	192
TAP	33	192	3
TAP	33	288	3
TAP	34	0	4
TAP	34	96	5
TAP	34	192	3
TAP	34	192	5
HLD	35	0	5	192
HLD	35	192	7	192
TAP	36	0	6
TAP	36	96	6
TAP	36	192	6
HLD	37	0	1	192
HLD	37	192	0	192
TAP	38	0	2
TAP	38	96	2
TAP	38	192	2
TAP	38	192	3
XTP	39	0	1
TAP	39	96	1
TAP	39	192	0
TAP	39	288	0
TAP	40	0	7
TAP	40	96	7
TAP	40	192	6
STR	40	288	6
SCL	40	288	6	96	384	1
BRK	42	192	1
BRK	42	192	6
TTP	43	0	3	E	0	L1
TTP	43	192	4	E	0	L1
TTP	44	0	5	E	0	L1
TTP	45	0	6	E	0	L1
TTP	45	192	0	C	0	L1
TTP	46	0	2	E	0	L1
TTP	47	0	1	B	0	L1
TTP	47	0	7	B	0	L1
TTP	48	0	0	B	0	L1
TTP	48	0	6	B	0	L1
THO	49	0	0	384	C	1	L1
XST	51	0	7
SCL	51	0	7	96	288	4
TAP	52	192	3
TAP	52	288	3
XST	53	0	3
SCL	53	0	3	96	288	0
TAP	54	192	6
TAP	54	288	6
XST	55	0	6
SCL	55	0	6	96	288	3
TAP	56	192	2
TAP	56	288	2
XST	57	0	2
SCL	57	0	2	96	288	7
XTP	58	192	6
XTP	58	288	6
XHO	59	0	5	192
XTP	59	192	4
XHO	60	0	1	192
XTP	60	192	3
XHO	61	0	6	192
XTP	61	192	4
XHO	62	0	2	192
XTP	62	192	3
XHO	63	0	5	192
XTP	63	192	7
XHO	64	0	1	192
XTP	64	192	0
HLD	65	0	7	192
HLD	65	192	0	192
TAP	66	0	7
XTP	66	192	1
XTP	66	192	6
THO	67	0	0	768	C	1	L1
TTP	67	0	2	B	0	L1
TTP	67	0	5	B	0	L1
TTP	77	0	5	B	0	L1
TTP	77	192	0	C	0	L1
TTP	78	0	3	B	0	L1
TTP	78	192	1	B	0	L1
TTP	79	0	6	B	0	L1
TTP	79	192	0	C	0	L1
TTP	80	0	5	B	0	L1
TTP	80	192	4	E	0	L1
TTP	81	0	3	E	0	L1
TTP	81	0	5	E	0	L1
TTP	81	192	2	E	0	L1
TTP	81	192	6	E	0	L1
TTP	82	0	1	E	0	L1
TTP	82	0	7	E	0	L1
TTP	83	0	3	B	0	L1
TTP	83	0	4	B	0	L1
TTP	83	192	2	B	0	L1
TTP	83	192	5	B	0	L1
TTP	84	0	1	B	0	L1
TTP	84	0	6	B	0	L1
THO	85	0	0	768	C	0	L1
HLD	88	0	0	96
HLD	88	0	7	96
TAP	88	192	1
TAP	88	192	6
XTP	88	288	1
XTP	88	288	6
TAP	89	0	1
TAP	89	96	2
TAP	89	192	3
TAP	89	288	4
TAP	90	0	5
TAP	90	48	5
TAP	90	96	5
TAP	90	192	4
TAP	90	192	5
TAP	90	288	4
TAP	90	288	5
TAP	91	0	6
TAP	91	48	6
TAP	91	96	6
TAP	91	192	6
TAP	91	192	7
TAP	91	288	6
TAP	91	288	7
TAP	92	0	0
TAP	92	48	0
TAP	92	96	0
TAP	92	192	1
TAP	92	192	7
TAP	92	288	7
TAP	93	0	6
TAP	93	96	5
TAP	93	192	4
TAP	93	288	3
TAP	94	0	2
TAP	94	48	2
TAP	94	96	2
TAP	94	192	1
TAP	94	192	3
TAP	94	288	1
TAP	94	288	3
TAP	95	0	0
TAP	95	48	0
TAP	95	96	0
TAP	95	192	7
TAP	95	240	7
TAP	95	288	7
TAP	96	0	0
TAP	96	0	7
TAP	96	96	1
TAP	96	96	6
BRK	96	192	2
BRK	96	192	5
TAP	97	0	3
TAP	97	96	2
TAP	97	192	1
TAP	97	288	0
TAP	98	0	7
TAP	98	48	7
TAP	98	96	7
TAP	98	192	0
TAP	98	192	6
TAP	98	288	0
TAP	98	288	6
TAP	99	0	1
TAP	99	48	1
TAP	99	96	1
TAP	99	192	2
TAP	99	192	3
TAP	99	288	4
TAP	99	288	5
TAP	100	0	6
TAP	100	48	6
TAP	100	96	6
XTP	100	192	1
XTP	100	192	7
TAP	101	0	0
TAP	101	96	1
TAP	101	192	2
TAP	101	240	2
TAP	101	288	2
TAP	102	0	3
TAP	102	96	4
TAP	102	192	5
TAP	102	240	5
TAP	102	288	5
TAP	103	0	6
TAP	103	0	7
TAP	103	96	0
TAP	103	96	5
TAP	103	192	0
TAP	103	192	1
TAP	103	288	2
TAP	103	288	7
HLD	104	0	0	96
HLD	104	0	7	96
BRK	104	192	1
BRK	104	192	6
STR	105	0	0
SCR	105	0	0	96	288	3
STR	105	0	7
SCL	105	0	7	96	288	4
XTP	106	192	2
XTP	106	192	5
HLD	107	0	2	192
TAP	107	96	3
TAP	107	192	3
TAP	107	288	1
TAP	107	288	4
TAP	108	0	5
TAP	108	96	4
TAP	108	96	5
TAP	108	192	3
TAP	108	192	6
XTP	108	288	6
HLD	109	0	6	192
TAP	109	96	7
TAP	109	192	0
TAP	109	288	1
HLD	110	0	1	192
TAP	110	96	0
TAP	110	192	7
TAP	110	288	6
TAP	111	0	0
TAP	111	0	6
TAP	111	96	0
TAP	111	96	6
TAP	111	192	1
TAP	111	192	5
TAP	111	288	2
TAP	111	288	4
TAP	112	0	3
TAP	112	48	3
TAP	112	96	3
BRK	112	192	2
BRK	112	192	5
TAP	113	0	6
TAP	113	96	6
TAP	113	96	7
TAP	113	192	1
TAP	113	288	0
TAP	113	288	1
TAP	114	0	7
TAP	114	48	7
TAP	114	96	7
TAP	114	192	0
TAP	114	192	6
TAP	114	288	1
TAP	114	288	5
TAP	115	0	2
TAP	115	96	1
TAP	115	96	3
TAP	115	192	5
TAP	115	288	4
TAP	115	288	6
TAP	116	0	3
TAP	116	0	4
TAP	116	48	3
TAP	116	48	4
TAP	116	96	3
TAP	116	96	4
XTP	116	192	2
XTP	116	192	5
TAP	117	0	2
TAP	117	0	3
TAP	117	48	2
TAP	117	48	3
TAP	117	96	2
TAP	117	96	3
TAP	117	192	4
TAP	117	288	5
TAP	118	0	4
TAP	118	0	5
TAP	118	48	4
TAP	118	48	5
TAP	118	96	4
TAP	118	96	5
XTP	118	192	3
XTP	118	192	6
TAP	118	288	2
TAP	118	288	7
TAP	119	0	0
TAP	119	0	1
TAP	119	48	0
TAP	119	48	1
TAP	119	96	0
TAP	119	96	1
TAP	119	192	6
TAP	119	192	7
TAP	119	240	6
TAP	119	240	7
TAP	119	288	6
TAP	119	288	7
TAP	120	0	0
TAP	120	0	7
TAP	120	48	0
TAP	120	48	7
TAP	120	96	0
TAP	120	96	7
BRK	120	192	1
BRK	120	192	6
XST	121	0	1
SI_	121	0	1	96	288	4
SI_	121	0	1	96	288	6
TAP	122	192	5
TAP	122	288	5
XST	123	0	5
SI_	123	0	5	96	288	0
SI_	123	0	5	96	288	2
XTP	124	192	1
XTP	124	288	1
XST	125	0	0
SI_	125	0	0	96	288	5
SCR	125	0	0	96	288	3
XTP	126	192	4
XTP	126	288	4
XST	127	0	4
SI_	127	0	4	96	288	1
SCR	127	0	4	96	288	7
THO	128	192	0	192	C	1	L1

T_REC_TAP	266
T_REC_BRK	14
T_REC_XTP	31
T_REC_HLD	28
T_REC_XHO	6
T_REC_STR	5
T_REC_BST	0
T_REC_XST	8
T_REC_TTP	32
T_REC_THO	4
T_REC_SLD	17
T_REC_ALL	411
T_NUM_TAP	342
T_NUM_BRK	14
T_NUM_HLD	38
T_NUM_SLD	17
T_NUM_ALL	411
T_JUDGE_TAP	356
T_JUDGE_HLD	180
T_JUDGE_SLD	17
T_JUDGE_ALL	553
TTM_EACHPAIRS	79
TTM_SCR_TAP	171000
TTM_SCR_BRK	36400
TTM_SCR_HLD	38000
TTM_SCR_SLD	25500
TTM_SCR_ALL	270900
TTM_SCR_S	261450
TTM_SCR_SS	269500
TTM_RAT_ACV	10051

