VERSION	0.00.00	1.03.00
FES_MODE	0
BPM_DEF	236.000	236.000	236.000	236.000
MET_DEF	4	4
RESOLUTION	384
CLK_DEF	384
COMPATIBLE_CODE	MA2

BPM	0	0	236.000
MET	0	0	4	4

HLD	9	0	0	576
TAP	11	0	0
TAP	11	192	0
TAP	12	0	0
TAP	13	0	1
TAP	13	192	1
TAP	14	0	1
TAP	15	0	2
TAP	15	192	2
TAP	16	0	2
TAP	17	0	3
TAP	17	192	3
TAP	18	0	3
TAP	18	0	4
TAP	19	0	4
TAP	19	192	4
TAP	20	0	4
TAP	21	0	5
TAP	21	192	5
TAP	22	0	5
TAP	23	0	6
TAP	23	192	6
TAP	24	0	6
TAP	25	0	0
TAP	25	0	7
TAP	25	192	0
TAP	25	192	7
BRK	26	0	0
BRK	26	0	7
STR	27	0	0
SI_	27	0	0	96	672	3
TAP	31	0	4
TAP	31	192	4
TAP	32	0	5
TAP	32	192	5
TAP	33	0	6
TAP	33	192	6
TAP	34	0	0
TAP	34	0	7
STR	35	0	7
SI_	35	0	7	96	672	4
TAP	39	0	3
TAP	39	192	3
TAP	40	0	2
TAP	40	192	2
TAP	41	0	1
TAP	41	192	1
TAP	42	0	0
TAP	42	0	7
TTP	43	0	0	B	0	L1
TTP	43	0	7	B	0	L1
TTP	44	0	1	B	0	L1
TTP	44	0	6	B	0	L1
TTP	45	0	2	B	0	L1
TTP	45	0	5	B	0	L1
TTP	46	0	3	B	0	L1
TTP	46	0	4	B	0	L1
THO	47	0	0	1152	C	1	L1
XST	51	0	7
SCL	51	0	7	96	672	4
XST	55	0	3
SCL	55	0	3	96	672	0
XST	59	0	0
SCR	59	0	0	96	672	3
XST	63	0	4
SCR	63	0	4	96	672	7
THO	67	0	0	768	C	1	L1
TAP	77	0	0
TAP	78	0	1
TAP	79	0	2
TAP	80	0	3
TAP	81	0	4
TAP	82	0	5
TAP	83	0	6
TAP	84	0	7
BRK	85	0	1
BRK	85	0	6
TAP	89	0	7
TAP	89	96	7
TAP	89	192	7
TAP	89	288	7
TAP	90	0	6
TAP	90	96	6
TAP	90	192	6
TAP	90	288	6
TAP	91	0	5
TAP	91	96	5
TAP	91	192	5
TAP	91	288	5
TAP	92	0	4
TAP	92	96	4
TAP	92	192	4
TAP	92	288	4
TAP	93	0	3
TAP	93	96	3
TAP	93	192	3
TAP	93	288	3
TAP	94	0	2
TAP	94	96	2
TAP	94	192	2
TAP	94	288	2
TAP	95	0	1
TAP	95	96	1
TAP	95	192	1
TAP	95	288	1
TAP	96	0	0
TAP	96	96	0
BRK	96	192	0
BRK	96	192	7
TAP	97	0	0
TAP	97	96	0
TAP	97	192	1
TAP	97	288	1
TAP	98	0	2
TAP	98	96	2
TAP	98	192	3
TAP	98	288	3
TAP	99	0	4
TAP	99	96	4
TAP	99	192	5
TAP	99	288	5
TAP	100	0	6
TAP	100	96	6
TAP	100	192	7
BRK	100	288	7
TAP	101	0	6
TAP	101	96	6
TAP	101	192	5
TAP	101	288	5
TAP	102	0	4
TAP	102	96	4
TAP	102	192	3
TAP	102	288	3
TAP	103	0	2
TAP	103	96	2
TAP	103	192	1
TAP	103	288	1
XHO	104	0	0	192
XHO	104	0	7	192
STR	105	0	7
SI_	105	0	7	96	288	3
TAP	107	0	2
TAP	107	96	2
TAP	107	192	2
TAP	107	288	2
TAP	108	0	3
TAP	108	96	3
TAP	108	192	3
TAP	108	288	3
TAP	109	0	4
TAP	109	96	4
TAP	109	192	4
TAP	109	288	4
TAP	110	0	5
TAP	110	96	5
TAP	110	192	5
TAP	110	288	5
HLD	111	0	6	384
BRK	112	192	0
BRK	112	192	7
TAP	113	0	1
TAP	113	96	1
TAP	113	192	1
TAP	113	288	1
TAP	114	0	2
TAP	114	96	2
TAP	114	192	2
TAP	114	288	2
TAP	115	0	3
TAP	115	96	3
TAP	115	192	3
TAP	115	288	3
TAP	116	0	4
TAP	116	96	4
XTP	116	192	3
XTP	116	192	4
XTP	117	0	3
XTP	117	96	3
XTP	117	192	4
XTP	117	288	4
XTP	118	0	2
XTP	118	96	2
XTP	118	192	5
XTP	118	288	5
XHO	119	0	3	384
BRK	120	192	3
BRK	120	192	4
TAP	121	0	5
TAP	121	96	5
TAP	121	192	5
TAP	122	0	4
TAP	122	0	5
TAP	122	96	4
TAP	122	96	5
TAP	122	192	4
TAP	122	192	5
TAP	123	0	2
TAP	123	96	2
TAP	123	192	2
TAP	124	0	2
TAP	124	0	3
TAP	124	96	2
TAP	124	96	3
TAP	124	192	2
TAP	124	192	3
TAP	125	0	4
TAP	125	96	4
TAP	125	192	5
TAP	125	288	5
TAP	126	0	6
TAP	126	96	6
TAP	126	192	7
TAP	126	288	7
TAP	127	0	0
TAP	127	96	0
TAP	127	192	1
TAP	127	288	1
TAP	128	0	2
TAP	128	96	2
TAP	128	192	3
TAP	128	192	4
TTP	129	0	0	C	1	L1

T_REC_TAP	171
T_REC_BRK	11
T_REC_XTP	10
T_REC_HLD	2
T_REC_XHO	3
T_REC_STR	3
T_REC_BST	0
T_REC_XST	4
T_REC_TTP	9
T_REC_THO	2
T_REC_SLD	7
T_REC_ALL	222
T_NUM_TAP	197
T_NUM_BRK	11
T_NUM_HLD	7
T_NUM_SLD	7
T_NUM_ALL	222
T_JUDGE_TAP	208
T_JUDGE_HLD	76
T_JUDGE_SLD	7
T_JUDGE_ALL	291
TTM_EACHPAIRS	19
TTM_SCR_TAP	98500
TTM_SCR_BRK	28600
TTM_SCR_HLD	7000
TTM_SCR_SLD	10500
TTM_SCR_ALL	144600
TTM_SCR_S	139200
TTM_SCR_SS	143500
TTM_RAT_ACV	10076

