VERSION	0.00.00	1.03.00
FES_MODE	0
BPM_DEF	130.000	130.000	130.000	130.000
MET_DEF	4	4
RESOLUTION	384
CLK_DEF	384
COMPATIBLE_CODE	MA2

BPM	0	0	130.000
MET	0	0	4	4

XTP	3	0	6
XTP	3	96	6
XTP	3	192	6
XTP	3	288	6
TAP	4	0	3
HLD	4	0	5	336
TTP	4	192	4	E	0	M1
TTP	4	264	5	B	0	M1
THO	4	336	0	144	C	0	M1
TTP	4	336	2	B	0	M1
TAP	5	192	7
TAP	5	240	7
XTP	5	288	1
XTP	5	288	6
HLD	6	0	2	336
TAP	6	0	4
TTP	6	192	4	E	0	M1
TTP	6	264	2	B	0	M1
THO	6	336	0	144	C	0	M1
TTP	6	336	5	B	0	M1
TAP	7	192	0
TAP	7	240	0
XTP	7	288	1
XTP	7	288	6
TAP	8	0	3
TAP	8	0	5
TAP	8	96	2
TAP	8	96	5
TAP	8	192	1
TAP	8	192	5
TAP	8	288	0
HLD	8	288	5	384
TTP	9	0	7	E	0	M1
TTP	9	96	5	E	0	M1
TTP	9	192	3	E	0	M1
TTP	9	288	1	E	0	M1
TAP	10	0	2
TAP	10	0	4
TAP	10	96	2
TAP	10	96	5
TAP	10	192	2
TAP	10	192	6
HLD	10	288	2	384
TAP	10	288	7
TTP	11	0	1	E	0	M1
TTP	11	96	3	E	0	M1
TTP	11	192	5	E	0	M1
TTP	11	288	7	E	0	M1
TAP	12	0	3
TAP	12	0	5
TAP	12	48	5
TAP	12	96	2
TAP	12	96	5
TAP	12	144	5
TAP	12	192	1
TAP	12	192	5
TAP	12	240	5
TAP	12	288	0
TAP	12	288	5
TAP	12	336	5
TAP	13	0	0
TAP	13	24	7
TAP	13	48	0
TAP	13	72	7
STR	13	96	0
SI_	13	96	0	96	48	4
TAP	13	120	7
TAP	13	144	0
XTP	13	192	6
XTP	13	288	2
XTP	13	288	6
TAP	14	0	2
STR	14	0	7
SI_	14	0	7	96	48	3
TAP	14	48	1
XTP	14	96	0
STR	14	192	0
SI_	14	192	0	96	48	4
TAP	14	192	5
TAP	14	240	6
XTP	14	288	7
TAP	15	0	2
STR	15	0	7
SI_	15	0	7	96	48	3
TAP	15	48	1
XTP	15	96	0
TAP	15	192	5
TAP	15	216	4
TAP	15	240	6
TAP	15	288	2
TAP	15	312	3
TAP	15	336	1
STR	16	0	0
SI_	16	0	0	96	48	4
TAP	16	0	5
TAP	16	48	6
XTP	16	96	7
TAP	16	192	2
STR	16	192	7
SI_	16	192	7	96	48	3
TAP	16	240	1
XTP	16	288	0
STR	17	0	0
SI_	17	0	0	96	48	4
TAP	17	0	5
TAP	17	48	6
XTP	17	96	7
TAP	17	192	2
TAP	17	216	3
TAP	17	240	1
BRK	17	288	0
BRK	17	288	4
TAP	18	0	2
STR	18	0	6
SI_	18	0	6	96	48	2
TAP	18	48	1
XTP	18	96	0
STR	18	192	1
SI_	18	192	1	96	48	5
TAP	18	192	5
TAP	18	240	6
XTP	18	288	7
TAP	19	0	2
STR	19	0	6
SI_	19	0	6	96	48	2
TAP	19	48	1
XTP	19	96	0
TAP	19	192	5
TAP	19	216	4
TAP	19	240	6
TAP	19	288	2
TAP	19	312	3
TAP	19	336	1
STR	20	0	1
SI_	20	0	1	96	48	5
TAP	20	0	5
TAP	20	48	6
XTP	20	96	7
TAP	20	192	2
STR	20	192	6
SI_	20	192	6	96	48	2
TAP	20	240	1
XTP	20	288	0
STR	21	0	1
SI_	21	0	1	96	48	5
TAP	21	0	5
TAP	21	48	6
XTP	21	96	7
TAP	21	192	0
TAP	21	216	7
TAP	21	240	0
BRK	21	288	1
BRK	21	288	6
TAP	22	0	1
TAP	22	0	4
TAP	22	48	2
TAP	22	72	3
TAP	22	96	2
TAP	22	144	4
TAP	22	192	3
TAP	22	192	5
TAP	22	240	5
TAP	22	264	4
TAP	22	288	5
TAP	22	336	3
STR	23	0	2
SI_	23	0	2	96	48	0
TAP	23	0	3
TAP	23	48	3
TAP	23	96	4
TAP	23	144	4
STR	23	192	2
SI_	23	192	2	96	48	0
TAP	23	192	3
TAP	23	240	3
TAP	23	288	4
TAP	23	336	4
TAP	24	0	3
TAP	24	0	5
TAP	24	48	5
TAP	24	72	4
TAP	24	96	5
TAP	24	144	3
TAP	24	192	2
TAP	24	192	4
TAP	24	240	2
TAP	24	264	3
TAP	24	288	2
STR	24	336	4
SXL	24	336	4	96	144	4
SXR	24	336	4	96	144	4
TAP	25	0	4
TTP	25	288	0	C	1	M1
TTP	25	288	3	B	0	M1
TTP	25	288	5	B	0	M1
TAP	26	0	1
TAP	26	0	7
TAP	26	48	1
TAP	26	72	0
TAP	26	96	1
TAP	26	144	7
TAP	26	192	0
TAP	26	192	6
TAP	26	240	6
TAP	26	264	7
TAP	26	288	6
TAP	26	336	0
TAP	27	0	0
STR	27	0	1
SI_	27	0	1	96	48	3
TAP	27	48	0
TAP	27	96	7
TAP	27	144	7
TAP	27	192	0
STR	27	192	1
SI_	27	192	1	96	48	3
TAP	27	240	0
TAP	27	288	7
TAP	27	336	7
TAP	28	0	0
TAP	28	0	6
TAP	28	48	6
TAP	28	72	7
TAP	28	96	6
TAP	28	144	0
TAP	28	192	1
TAP	28	192	7
TAP	28	240	1
TAP	28	264	0
STR	28	288	1
SCR	28	288	1	96	144	0
TAP	28	336	7
XTP	29	192	4
BRK	29	288	2
BRK	29	288	6
TAP	30	0	3
TAP	30	0	4
TTP	30	96	0	C	1	M1
TTP	30	192	7	E	0	M1
TTP	30	192	7	B	0	M1
TTP	30	264	3	E	0	M1
TTP	30	264	3	B	0	M1
THO	30	336	0	144	C	0	M1
TTP	30	336	1	B	0	M1
TTP	30	336	5	B	0	M1
TAP	31	192	7
TAP	31	240	7
XTP	31	288	1
XTP	31	288	6
TAP	32	0	3
TAP	32	0	4
TTP	32	96	0	C	1	M1
TTP	32	192	0	B	0	M1
TTP	32	192	1	E	0	M1
TTP	32	264	4	B	0	M1
TTP	32	264	5	E	0	M1
THO	32	336	0	144	C	0	M1
TTP	32	336	2	B	0	M1
TTP	32	336	6	B	0	M1
TAP	33	192	0
TAP	33	240	0
XTP	33	288	1
XTP	33	288	6
TAP	34	0	3
TAP	34	0	4
TTP	34	96	0	C	1	M1
TTP	34	192	7	E	0	M1
TTP	34	192	7	B	0	M1
TTP	34	264	3	E	0	M1
TTP	34	264	3	B	0	M1
THO	34	336	0	144	C	0	M1
TTP	34	336	1	B	0	M1
TTP	34	336	5	B	0	M1
TAP	35	192	7
TAP	35	240	7
XTP	35	288	1
XTP	35	288	6
STR	36	0	1
SI_	36	0	1	96	48	3
TTP	36	96	2	B	0	M1
TTP	36	96	3	B	0	M1
STR	36	192	6
SI_	36	192	6	96	48	4
TTP	36	288	4	B	0	M1
TTP	36	288	5	B	0	M1
STR	37	0	1
SI_	37	0	1	96	48	3
TTP	37	96	2	B	0	M1
TTP	37	96	3	B	0	M1
STR	37	192	6
SI_	37	192	6	96	48	4
TTP	37	288	4	B	0	M1
TTP	37	288	5	B	0	M1
STR	38	0	0
SI_	38	0	0	96	48	2
TTP	38	96	2	B	0	M1
TTP	38	96	3	B	0	M1
STR	38	192	7
SI_	38	192	7	96	48	5
TTP	38	288	4	B	0	M1
TTP	38	288	5	B	0	M1
STR	39	0	0
SI_	39	0	0	96	48	2
TTP	39	96	2	B	0	M1
TTP	39	96	3	B	0	M1
STR	39	192	7
SI_	39	192	7	96	48	5
TTP	39	288	4	B	0	M1
TTP	39	288	5	B	0	M1
STR	40	0	0
SI_	40	0	0	96	48	2
STR	40	96	4
SI_	40	96	4	96	48	6
STR	40	192	1
SI_	40	192	1	96	48	3
STR	40	288	5
SI_	40	288	5	96	48	7
STR	41	0	2
SI_	41	0	2	96	48	4
STR	41	96	6
SI_	41	96	6	96	48	0
STR	41	192	3
SI_	41	192	3	96	48	7
TAP	41	288	6
STR	42	0	6
SI_	42	0	6	96	48	4
TAP	42	48	6
STR	42	96	2
SI_	42	96	2	96	48	0
TAP	42	144	2
STR	42	192	5
SI_	42	192	5	96	48	3
TAP	42	240	5
BRK	42	288	0
TTP	43	0	0	C	1	M1
TTP	43	0	1	B	0	M1
TTP	43	0	2	B	0	M1
TTP	43	0	5	B	0	M1
TTP	43	0	6	B	0	M1
TAP	44	0	1
TAP	44	0	7
TAP	44	48	2
TAP	44	96	3
TAP	44	96	5
TAP	44	144	6
TAP	44	168	7
TAP	44	216	1
TAP	44	240	0
TAP	44	288	2
TAP	44	288	7
TAP	45	0	6
TAP	45	0	7
TAP	45	48	3
TAP	45	48	4
STR	45	96	0
SI_	45	96	0	96	48	2
STR	45	96	7
SI_	45	96	7	96	48	3
XST	45	192	0
SI_	45	192	0	96	48	4
XST	45	192	7
SI_	45	192	7	96	48	5
XTP	45	288	0
XTP	45	288	7
TAP	46	0	0
TAP	46	0	6
TAP	46	48	5
TAP	46	96	2
TAP	46	96	4
TAP	46	144	1
TAP	46	168	0
TAP	46	216	6
TAP	46	240	7
STR	46	288	0
SI_	46	288	0	96	48	5
TAP	46	288	5
XTP	47	0	0
HLD	47	96	1	192
STR	47	96	7
SI_	47	96	7	96	48	5
XST	47	192	7
SI_	47	192	7	96	48	3
XTP	47	288	7
TAP	48	0	0
TAP	48	0	6
TAP	48	48	5
TAP	48	96	2
TAP	48	96	4
TAP	48	144	1
TAP	48	168	0
TAP	48	216	6
TAP	48	240	7
TAP	48	288	0
TAP	48	288	5
TAP	49	0	0
TAP	49	0	1
TAP	49	48	3
TAP	49	48	4
STR	49	96	0
SI_	49	96	0	96	48	4
STR	49	96	7
SI_	49	96	7	96	48	5
XST	49	192	0
SI_	49	192	0	96	48	2
XST	49	192	7
SI_	49	192	7	96	48	3
XTP	49	288	0
XTP	49	288	7
TAP	50	0	0
TAP	50	24	7
TAP	50	48	1
TAP	50	72	6
TAP	50	96	0
TAP	50	144	5
TAP	50	168	4
TAP	50	216	2
TAP	50	240	3
BRK	50	288	1
BRK	50	288	7
TTP	51	0	0	B	0	M1
TTP	51	0	0	C	1	M1
TTP	51	0	3	B	0	M1
TTP	51	0	6	B	0	M1
XST	51	96	7
SI_	51	96	7	96	48	4
XST	51	192	3
SI_	51	192	3	96	48	0
XST	51	288	7
SCL	51	288	7	96	96	2
XTP	52	0	0
STR	52	96	0
SCR	52	96	0	96	96	5
XTP	52	192	7
STR	52	288	7
SI_	52	288	7	96	48	3
TAP	53	0	2
TAP	53	48	1
STR	53	96	0
SI_	53	96	0	96	48	4
XST	53	192	0
SCL	53	192	0	96	48	5
SCR	53	192	0	96	48	3
XTP	53	288	0
TAP	54	0	1
TAP	54	0	7
TAP	54	48	2
TAP	54	96	3
TAP	54	96	5
TAP	54	144	6
TAP	54	168	7
TAP	54	216	1
TAP	54	240	0
TAP	54	288	2
STR	54	288	7
SI_	54	288	7	96	48	2
XTP	55	0	7
STR	55	96	0
SI_	55	96	0	96	48	2
HLD	55	96	6	192
XST	55	192	0
SI_	55	192	0	96	48	4
XST	55	288	0
SCR	55	288	0	96	96	5
XTP	56	0	7
STR	56	96	7
SCL	56	96	7	96	96	2
XTP	56	192	0
STR	56	288	0
SI_	56	288	0	96	48	4
TAP	57	0	5
TAP	57	48	6
STR	57	96	7
SI_	57	96	7	96	48	3
XST	57	192	7
SCL	57	192	7	96	48	4
SCR	57	192	7	96	48	2
XTP	57	288	7
TAP	58	0	7
TAP	58	24	0
TAP	58	48	6
TAP	58	72	1
TAP	58	96	7
TAP	58	144	2
TAP	58	168	3
TAP	58	216	5
TAP	58	240	4
BRK	58	288	0
BRK	58	288	6
TTP	59	0	0	C	1	M1
TTP	59	0	1	B	0	M1
TTP	59	0	4	B	0	M1
TTP	59	0	7	B	0	M1
STR	59	96	0
SI_	59	96	0	96	48	3
SI_	59	96	0	96	48	5
XTP	59	192	0
BRK	59	288	2
BRK	59	288	6
TAP	60	0	0
HLD	60	0	7	96
TAP	60	48	1
HLD	60	96	2	192
TAP	60	192	0
TAP	60	240	7
HLD	60	288	5	192
TAP	61	0	7
TAP	61	48	0
TAP	61	96	2
TTP	61	192	5	B	0	M1
TTP	61	192	5	E	0	M1
TTP	61	192	6	B	0	M1
TTP	61	192	7	E	0	M1
TTP	61	288	1	E	0	M1
TTP	61	288	1	B	0	M1
TTP	61	288	2	B	0	M1
TTP	61	288	3	E	0	M1
HLD	62	0	0	96
TAP	62	0	7
TAP	62	48	6
HLD	62	96	5	192
TAP	62	192	7
TAP	62	240	0
HLD	62	288	2	192
TAP	63	0	0
TAP	63	48	7
TAP	63	96	5
TTP	63	192	3	E	0	M1
TTP	63	192	4	E	0	M1
TTP	63	192	5	E	0	M1
TTP	63	288	0	C	1	M1
TTP	63	288	2	E	0	M1
TTP	63	288	6	E	0	M1
TAP	64	0	0
HLD	64	0	7	96
TAP	64	48	1
HLD	64	96	2	192
TAP	64	192	3
TAP	64	240	4
HLD	64	288	6	192
TAP	65	0	7
TAP	65	48	0
TAP	65	96	2
TTP	65	192	1	B	0	M1
TTP	65	192	1	E	0	M1
TTP	65	192	2	B	0	M1
TTP	65	192	3	E	0	M1
TTP	65	288	5	E	0	M1
TTP	65	288	5	B	0	M1
TTP	65	288	6	B	0	M1
TTP	65	288	7	E	0	M1
HLD	66	0	0	96
TAP	66	0	7
TAP	66	48	6
HLD	66	96	5	192
TAP	66	192	4
TAP	66	240	3
HLD	66	288	1	192
TAP	67	0	0
TAP	67	48	7
TAP	67	96	5
TTP	67	192	0	E	0	M1
TTP	67	192	0	C	1	M1
TTP	67	192	4	E	0	M1
TTP	67	288	0	C	1	M1
TTP	67	288	2	E	0	M1
TTP	67	288	6	E	0	M1
TTP	68	0	0	E	0	M1
TTP	68	0	0	B	0	M1
THO	68	0	0	1152	C	1	M1
TTP	68	0	3	B	0	M1
TTP	68	0	4	E	0	M1
TTP	68	0	4	B	0	M1
TTP	68	0	7	B	0	M1
BRK	71	0	7

T_REC_TAP	259
T_REC_BRK	14
T_REC_XTP	44
T_REC_HLD	18
T_REC_XHO	0
T_REC_STR	52
T_REC_BST	0
T_REC_XST	12
T_REC_TTP	101
T_REC_THO	6
T_REC_SLD	68
T_REC_ALL	574
T_NUM_TAP	468
T_NUM_BRK	14
T_NUM_HLD	24
T_NUM_SLD	68
T_NUM_ALL	574
T_JUDGE_TAP	482
T_JUDGE_HLD	117
T_JUDGE_SLD	68
T_JUDGE_ALL	667
TTM_EACHPAIRS	81
TTM_SCR_TAP	234000
TTM_SCR_BRK	36400
TTM_SCR_HLD	24000
TTM_SCR_SLD	102000
TTM_SCR_ALL	396400
TTM_SCR_S	383150
TTM_SCR_SS	395000
TTM_RAT_ACV	10035

