VERSION	0.00.00	1.03.00
FES_MODE	0
BPM_DEF	130.000	130.000	130.000	130.000
MET_DEF	4	4
RESOLUTION	384
CLK_DEF	384
COMPATIBLE_CODE	MA2

BPM	0	0	130.000
MET	0	0	4	4
CLK	0	0
CLK	0	96
CLK	0	192
CLK	0	288

TAP	3	0	0
TAP	3	96	0
TAP	3	192	0
TAP	3	288	0
XTP	4	0	1
XTP	4	0	7
XTP	4	192	3
XTP	4	192	4
XTP	4	264	3
XTP	4	264	4
XHO	4	336	2	144
XHO	4	336	5	144
TAP	5	192	0
TAP	5	192	6
TAP	5	288	1
TAP	5	288	7
XTP	6	0	0
XTP	6	0	5
XTP	6	192	3
XTP	6	192	4
XTP	6	264	3
XTP	6	264	4
XHO	6	336	2	144
XHO	6	336	5	144
TAP	7	192	3
TAP	7	192	4
BRK	7	288	1
BRK	7	288	6
XTP	8	0	2
TAP	8	96	2
TAP	8	96	3
TAP	8	192	1
TAP	8	288	0
TAP	8	288	2
TAP	9	0	5
TAP	9	96	4
TAP	9	96	5
TAP	9	192	6
TAP	9	288	5
TAP	9	288	7
XHO	10	0	0	96
HLD	10	96	1	96
HLD	10	192	2	96
TAP	10	288	3
HLD	11	0	4	96
HLD	11	96	5	96
HLD	11	192	6	96
TAP	11	288	7
TAP	12	0	7
TAP	12	48	6
TAP	12	96	5
TAP	12	144	4
TAP	12	192	3
TAP	12	240	2
TAP	12	288	1
TAP	12	336	0
XTP	13	0	1
XTP	13	0	6
TTP	13	192	0	E	0	M1
TTP	13	192	0	C	1	M1
TTP	13	192	4	E	0	M1
XTP	14	0	4
XHO	14	0	6	96
TAP	14	96	7
TAP	14	192	5
TAP	14	240	4
TAP	14	288	3
TAP	14	288	6
HLD	15	0	1	96
TAP	15	0	3
TAP	15	96	0
TAP	15	192	2
TAP	15	240	3
TAP	15	288	1
TAP	15	288	4
TAP	16	0	4
HLD	16	0	6	96
TAP	16	96	7
TAP	16	192	5
TAP	16	240	4
TAP	16	288	3
TAP	16	288	6
TAP	17	0	0
STR	17	0	1
SI_	17	0	1	96	48	6
TAP	17	192	4
STR	17	192	5
SI_	17	192	5	96	48	2
TAP	18	0	0
HLD	18	0	1	96
TAP	18	96	3
TAP	18	192	5
TAP	18	240	4
TAP	18	288	3
TAP	18	288	6
HLD	19	0	6	96
TAP	19	0	7
TAP	19	96	4
TAP	19	192	2
TAP	19	240	3
TAP	19	288	1
TAP	19	288	4
TAP	20	0	0
HLD	20	0	1	96
TAP	20	96	3
TAP	20	192	5
TAP	20	240	4
TAP	20	288	3
TAP	20	288	6
TAP	21	0	2
TAP	21	0	3
TAP	21	96	4
TAP	21	96	5
TAP	21	192	0
TAP	21	192	7
BRK	21	288	1
BRK	21	288	6
TAP	22	0	2
TAP	22	0	4
TAP	22	96	3
TAP	22	96	5
TAP	22	192	4
TAP	22	240	4
TAP	22	288	4
TTP	23	0	2	E	0	M1
TTP	23	96	1	E	0	M1
TTP	23	96	3	E	0	M1
TTP	23	192	6	E	0	M1
TTP	23	288	5	E	0	M1
TTP	23	288	7	E	0	M1
HLD	24	0	2	96
TAP	24	96	3
HLD	24	192	5	96
STR	24	288	4
SXL	24	288	4	96	192	4
SXR	24	288	4	96	192	4
TTP	25	288	0	C	1	M1
TAP	26	0	3
TAP	26	0	5
TAP	26	96	2
TAP	26	96	4
TAP	26	192	3
TAP	26	240	3
TAP	26	288	3
TTP	27	0	6	E	0	M1
TTP	27	96	5	E	0	M1
TTP	27	96	7	E	0	M1
TTP	27	192	2	E	0	M1
TTP	27	288	1	E	0	M1
TTP	27	288	3	E	0	M1
HLD	28	0	5	96
TAP	28	96	4
HLD	28	192	2	96
TAP	28	288	3
THO	29	0	0	192	C	0	M1
TAP	30	0	3
TAP	30	0	4
BRK	30	96	0
XTP	30	192	2
XHO	30	192	3	144
XTP	30	264	2
XTP	30	336	2
TAP	31	48	6
TAP	31	96	6
TAP	31	192	0
TAP	31	192	5
TAP	31	288	2
TAP	31	288	6
TAP	32	0	3
TAP	32	0	4
BRK	32	96	7
XHO	32	192	4	144
XTP	32	192	5
XTP	32	264	5
XTP	32	336	5
STR	33	96	1
SI_	33	96	1	96	96	4
STR	33	96	7
SI_	33	96	7	96	96	4
TAP	34	0	3
TAP	34	0	4
BRK	34	96	0
XTP	34	192	2
XHO	34	192	3	144
XTP	34	264	2
XTP	34	336	2
TAP	35	48	6
TAP	35	96	6
TAP	35	192	4
TAP	35	192	6
STR	35	288	1
SCL	35	288	1	96	192	6
TAP	35	288	3
STR	36	288	5
SUR	36	288	5	96	192	2
STR	37	288	2
SCL	37	288	2	96	192	5
STR	38	288	4
SCR	38	288	4	96	288	3
HLD	40	0	7	96
HLD	40	96	6	96
HLD	40	192	5	96
HLD	40	288	4	96
HLD	41	0	3	96
HLD	41	96	2	96
HLD	41	192	1	96
TAP	41	288	0
TAP	42	0	0
TAP	42	48	1
TAP	42	96	2
TAP	42	144	3
TAP	42	192	4
TAP	42	240	5
TAP	42	288	6
TAP	42	336	7
BRK	43	0	1
BRK	43	0	6
TTP	43	192	0	E	0	M1
TTP	43	192	0	C	1	M1
TTP	43	192	4	E	0	M1
XTP	44	0	6
XTP	44	0	7
XTP	44	48	6
XTP	44	48	7
XTP	44	96	6
XTP	44	96	7
TAP	44	144	5
TAP	44	168	4
TAP	44	216	4
TAP	44	240	5
TAP	44	288	3
TAP	44	288	6
XST	45	0	0
SCL	45	0	0	96	48	5
XST	45	0	1
SI_	45	0	1	96	48	5
TAP	45	192	3
TAP	45	192	4
BRK	45	288	0
BRK	45	288	1
XTP	46	0	4
XTP	46	0	5
XTP	46	48	4
XTP	46	48	5
XTP	46	96	4
XTP	46	96	5
TAP	46	144	6
TAP	46	168	7
TAP	46	216	7
TAP	46	240	6
TAP	46	288	0
TAP	46	288	5
BST	47	0	2
SI_	47	0	2	96	48	7
BST	47	0	3
SI_	47	0	3	96	48	6
TAP	47	192	0
TAP	47	192	5
TAP	47	288	2
TAP	47	288	7
XTP	48	0	0
XTP	48	0	1
XTP	48	48	0
XTP	48	48	1
XTP	48	96	0
XTP	48	96	1
TAP	48	144	2
TAP	48	168	3
TAP	48	216	3
TAP	48	240	2
TAP	48	288	1
TAP	48	288	4
XST	49	0	6
SI_	49	0	6	96	48	2
XST	49	0	7
SCR	49	0	7	96	48	2
TAP	49	192	3
TAP	49	192	4
BRK	49	288	6
BRK	49	288	7
TAP	50	0	0
TAP	50	0	7
TAP	50	48	1
TAP	50	96	2
TAP	50	96	3
TAP	50	192	0
TAP	50	192	7
TAP	50	240	6
TAP	50	288	4
TAP	50	288	5
TTP	51	0	0	C	1	M1
TTP	51	0	1	B	0	M1
TTP	51	0	4	B	0	M1
TTP	51	0	7	B	0	M1
BRK	51	192	0
BRK	51	288	7
XST	52	0	0
SCL	52	0	0	96	48	5
XHO	52	0	1	96
XHO	52	192	6	96
XST	52	192	7
SCR	52	192	7	96	48	2
TAP	53	0	3
TAP	53	0	4
TAP	53	48	5
TAP	53	96	6
TAP	53	96	7
TTP	53	192	2	E	0	M1
TTP	53	192	2	B	0	M1
TTP	53	192	3	B	0	M1
TTP	53	288	6	B	0	M1
TTP	53	288	6	E	0	M1
TTP	53	288	7	B	0	M1
XTP	54	0	2
XTP	54	0	3
XTP	54	48	2
XTP	54	48	3
XTP	54	96	2
XTP	54	96	3
TAP	54	144	1
TAP	54	168	0
TAP	54	216	0
TAP	54	240	1
TAP	54	288	2
TAP	54	288	7
BST	55	0	4
SI_	55	0	4	96	48	1
BST	55	0	5
SI_	55	0	5	96	48	0
XTP	55	192	2
XTP	55	192	7
XTP	55	288	0
XTP	55	288	5
XHO	56	0	6	96
XST	56	0	7
SCR	56	0	7	96	48	2
XST	56	192	0
SCL	56	192	0	96	48	5
XHO	56	192	1	96
TAP	57	0	3
TAP	57	0	4
TAP	57	48	2
TAP	57	96	0
TAP	57	96	1
TTP	57	192	4	B	0	M1
TTP	57	192	5	B	0	M1
TTP	57	192	6	E	0	M1
TTP	57	288	0	B	0	M1
TTP	57	288	1	B	0	M1
TTP	57	288	2	E	0	M1
TAP	58	0	6
TAP	58	0	7
TAP	58	48	5
TAP	58	96	3
TAP	58	96	4
TAP	58	192	0
TAP	58	192	1
TAP	58	240	2
TAP	58	288	3
TAP	58	288	4
TTP	59	0	0	B	0	M1
TTP	59	0	0	C	1	M1
TTP	59	0	3	B	0	M1
TTP	59	0	6	B	0	M1
STR	59	192	3
SI_	59	192	3	96	48	0
STR	59	192	4
SI_	59	192	4	96	48	7
BRK	60	0	1
BRK	60	0	6
TAP	60	96	2
TAP	60	96	3
TAP	60	192	5
TAP	60	240	4
TAP	60	288	3
TAP	60	288	6
HLD	61	0	5	96
TAP	61	0	7
TAP	61	96	4
TAP	61	192	2
TAP	61	240	3
TAP	61	288	1
TAP	61	288	4
TAP	62	0	0
HLD	62	0	2	96
TAP	62	96	3
TAP	62	192	5
TAP	62	240	4
TAP	62	288	3
TAP	62	288	6
STR	63	0	6
SI_	63	0	6	96	48	1
TAP	63	0	7
STR	63	192	2
SI_	63	192	2	96	48	5
TAP	63	192	3
XHO	64	0	0	96
XTP	64	0	6
TAP	64	96	2
TAP	64	192	4
TAP	64	240	5
TAP	64	288	3
TAP	64	288	6
TAP	65	0	1
HLD	65	0	7	96
TAP	65	96	5
TAP	65	192	3
TAP	65	240	2
TAP	65	288	1
TAP	65	288	4
HLD	66	0	0	96
TAP	66	0	6
TAP	66	96	2
TAP	66	192	4
TAP	66	240	5
TAP	66	288	3
TAP	66	288	6
TAP	67	0	0
TAP	67	0	7
TAP	67	96	1
TAP	67	96	2
TAP	67	192	3
TAP	67	192	4
TAP	67	288	5
TAP	67	288	6
XTP	68	0	0
XST	68	0	7
SCL	68	0	7	96	864	0
TTP	71	0	0	C	1	M1
TTP	71	0	1	B	0	M1
TTP	71	0	2	B	0	M1
TTP	71	0	5	B	0	M1
TTP	71	0	6	B	0	M1

T_REC_TAP	224
T_REC_BRK	17
T_REC_XTP	55
T_REC_HLD	25
T_REC_XHO	14
T_REC_STR	13
T_REC_BST	4
T_REC_XST	9
T_REC_TTP	44
T_REC_THO	1
T_REC_SLD	27
T_REC_ALL	433
T_NUM_TAP	345
T_NUM_BRK	21
T_NUM_HLD	40
T_NUM_SLD	27
T_NUM_ALL	433
T_JUDGE_TAP	366
T_JUDGE_HLD	89
T_JUDGE_SLD	27
T_JUDGE_ALL	482
TTM_EACHPAIRS	116
TTM_SCR_TAP	172500
TTM_SCR_BRK	54600
TTM_SCR_HLD	40000
TTM_SCR_SLD	40500
TTM_SCR_ALL	307600
TTM_SCR_S	296350
TTM_SCR_SS	305500
TTM_RAT_ACV	10068

