VERSION	0.00.00	1.03.00
FES_MODE	0
BPM_DEF	130.000	130.000	130.000	130.000
MET_DEF	4	4
RESOLUTION	384
CLK_DEF	384
COMPATIBLE_CODE	MA2

BPM	0	0	130.000
MET	0	0	4	4

HLD	4	0	2	192
TAP	4	192	3
HLD	5	0	4	192
TAP	5	192	3
HLD	6	0	5	192
TAP	6	192	4
HLD	7	0	3	192
XTP	7	192	4
TAP	8	0	2
TAP	8	96	2
TAP	8	192	2
TAP	8	192	3
TAP	9	0	5
TAP	9	96	5
TAP	9	192	4
TAP	9	192	5
TAP	10	0	2
TAP	10	96	2
TAP	10	192	3
TAP	10	288	3
TAP	11	0	4
TAP	11	96	5
XTP	11	192	4
XTP	11	192	6
TAP	12	0	5
TAP	12	96	4
TAP	12	192	3
TAP	12	288	2
TAP	13	0	1
TAP	13	96	0
TAP	13	96	7
BRK	13	192	1
BRK	13	192	6
TAP	14	0	1
TAP	14	96	0
TAP	14	96	1
TAP	14	192	7
TAP	14	288	0
TAP	14	288	7
TAP	15	0	1
TAP	15	96	0
TAP	15	96	1
XTP	15	192	2
XTP	15	192	7
TAP	16	0	2
TAP	16	96	3
TAP	16	192	4
TAP	16	288	5
TAP	17	0	6
TAP	17	96	6
TAP	17	96	7
XTP	17	192	0
XTP	17	192	5
TAP	18	0	6
TAP	18	96	6
TAP	18	96	7
TAP	18	192	0
TAP	18	288	0
TAP	18	288	7
TAP	19	0	6
TAP	19	96	6
TAP	19	96	7
XTP	19	192	0
XTP	19	192	5
TAP	20	0	5
TAP	20	96	4
TAP	20	192	3
TAP	20	288	2
TAP	21	0	1
TAP	21	96	0
XTP	21	192	1
XTP	21	192	6
HLD	22	0	5	288
TAP	22	192	4
TAP	22	288	4
HLD	23	0	2	288
TAP	23	192	3
TAP	23	288	3
HLD	24	0	5	288
TAP	24	192	4
TAP	24	288	4
TAP	25	0	3
TAP	25	96	2
BRK	25	192	1
BRK	25	192	3
HLD	26	0	2	288
TAP	26	192	3
TAP	26	288	3
HLD	27	0	5	192
TAP	27	192	4
TAP	27	288	4
TAP	28	0	3
TAP	28	96	3
TAP	28	192	2
TAP	28	288	2
TAP	29	0	1
TAP	29	96	0
BRK	29	192	1
BRK	29	192	6
STR	30	0	6
SI_	30	0	6	96	144	4
STR	30	0	7
SI_	30	0	7	96	144	3
TAP	31	0	1
TAP	31	96	1
XTP	31	192	1
STR	32	0	0
SI_	32	0	0	96	144	4
STR	32	0	1
SI_	32	0	1	96	144	3
TAP	33	0	6
TAP	33	96	6
XTP	33	192	6
STR	34	0	6
SI_	34	0	6	96	144	4
STR	34	0	7
SI_	34	0	7	96	144	3
TAP	35	0	1
TAP	35	96	1
BRK	35	192	1
TTP	36	0	1	B	0	L1
TTP	36	192	3	B	0	L1
TTP	37	0	5	B	0	L1
TTP	37	192	7	B	0	L1
TTP	38	0	1	B	0	L1
TTP	38	192	3	B	0	L1
TTP	39	0	0	C	0	L1
TTP	40	0	6	B	0	L1
TTP	40	192	0	C	0	L1
TTP	41	0	2	B	0	L1
TTP	41	192	1	B	0	L1
THO	42	0	0	384	C	1	L1
TAP	44	0	7
TAP	44	96	0
TAP	44	96	1
TAP	44	192	2
TAP	44	288	3
TAP	44	288	4
TAP	45	0	5
TAP	45	96	6
TAP	45	96	7
BRK	45	192	0
BRK	45	192	5
TAP	46	0	5
TAP	46	96	4
TAP	46	192	3
TAP	46	288	2
XTP	47	0	0
XTP	47	0	1
XTP	47	96	7
BRK	47	192	1
BRK	47	192	6
TAP	48	0	0
TAP	48	96	6
TAP	48	96	7
TAP	48	192	5
TAP	48	288	3
TAP	48	288	4
TAP	49	0	2
TAP	49	96	0
TAP	49	96	1
BRK	49	192	2
BRK	49	192	7
TAP	50	0	2
TAP	50	96	3
TAP	50	192	4
TAP	50	288	5
XTP	51	0	6
XTP	51	0	7
XTP	51	96	0
BRK	51	192	1
BRK	51	192	6
STR	52	0	6
SCL	52	0	6	96	240	2
TAP	53	0	1
TAP	53	96	0
BRK	53	192	1
BRK	53	192	7
TAP	54	0	2
TAP	54	96	0
TAP	54	96	1
TAP	54	192	7
TAP	54	288	6
TAP	54	288	7
XTP	55	0	0
XTP	55	96	0
XTP	55	96	7
BRK	55	192	1
BRK	55	192	6
STR	56	0	1
SCR	56	0	1	96	240	5
TAP	57	0	6
TAP	57	96	7
BRK	57	192	0
BRK	57	192	6
TAP	58	0	5
TAP	58	96	6
TAP	58	96	7
TAP	58	192	0
TAP	58	288	0
TAP	58	288	1
XTP	59	0	7
XTP	59	96	0
XTP	59	96	7
BRK	59	192	1
BRK	59	192	6
TAP	60	0	7
TAP	60	96	6
TAP	60	192	5
TAP	60	288	4
TAP	61	0	3
TAP	61	96	2
XTP	61	192	0
XTP	61	192	1
TAP	62	0	0
TAP	62	96	1
TAP	62	192	2
TAP	62	288	3
TAP	63	0	4
TAP	63	96	5
XTP	63	192	6
XTP	63	192	7
TAP	64	0	7
TAP	64	96	6
TAP	64	192	4
TAP	64	192	5
TAP	64	288	3
TAP	65	0	2
XTP	65	96	0
XTP	65	96	1
XTP	65	192	2
XTP	65	192	7
TAP	66	0	0
TAP	66	96	1
TAP	66	192	2
TAP	66	192	3
TAP	66	288	4
XTP	67	0	3
XTP	67	0	4
TTP	67	192	3	B	0	L1
TTP	67	192	4	B	0	L1
THO	68	0	0	1152	C	1	L1

T_REC_TAP	144
T_REC_BRK	23
T_REC_XTP	35
T_REC_HLD	9
T_REC_XHO	0
T_REC_STR	8
T_REC_BST	0
T_REC_XST	0
T_REC_TTP	13
T_REC_THO	2
T_REC_SLD	8
T_REC_ALL	242
T_NUM_TAP	200
T_NUM_BRK	23
T_NUM_HLD	11
T_NUM_SLD	8
T_NUM_ALL	242
T_JUDGE_TAP	223
T_JUDGE_HLD	76
T_JUDGE_SLD	8
T_JUDGE_ALL	307
TTM_EACHPAIRS	50
TTM_SCR_TAP	100000
TTM_SCR_BRK	59800
TTM_SCR_HLD	11000
TTM_SCR_SLD	12000
TTM_SCR_ALL	182800
TTM_SCR_S	175100
TTM_SCR_SS	180500
TTM_RAT_ACV	10127

