VERSION	0.00.00	1.03.00
FES_MODE	0
BPM_DEF	130.000	130.000	130.000	130.000
MET_DEF	4	4
RESOLUTION	384
CLK_DEF	384
COMPATIBLE_CODE	MA2

BPM	0	0	130.000
MET	0	0	4	4

XHO	4	0	3	384
XHO	6	0	4	384
TTP	8	0	3	B	0	L1
TTP	8	0	4	B	0	L1
TTP	9	0	2	B	0	L1
TTP	9	0	5	B	0	L1
TTP	10	0	1	B	0	L1
TTP	10	0	6	B	0	L1
TTP	11	0	0	B	0	L1
TTP	11	0	7	B	0	L1
THO	12	0	0	384	C	1	L1
TAP	14	0	0
TAP	15	0	0
TAP	16	0	7
TAP	17	0	7
TAP	18	0	0
TAP	18	192	0
TAP	19	0	0
TAP	20	0	7
TAP	20	192	7
BRK	21	0	7
TAP	22	0	0
TAP	22	192	0
TAP	23	0	0
TAP	23	96	0
TAP	23	192	0
TAP	24	0	1
TAP	24	192	1
XTP	25	0	1
XTP	25	96	1
XTP	25	192	1
TAP	26	0	2
TAP	26	192	2
TAP	27	0	2
TAP	27	96	2
TAP	27	192	2
TAP	28	0	3
TAP	28	192	3
TAP	29	0	3
TAP	29	96	3
BRK	29	192	3
BRK	29	192	4
TTP	30	0	5	B	0	L1
TTP	31	0	6	B	0	L1
TTP	32	0	7	B	0	L1
TTP	33	0	0	B	0	L1
TTP	34	0	1	B	0	L1
TTP	35	0	2	B	0	L1
TTP	36	0	3	B	0	L1
TTP	36	0	4	B	0	L1
TTP	37	0	2	B	0	L1
TTP	37	0	5	B	0	L1
TTP	38	0	1	B	0	L1
TTP	38	0	6	B	0	L1
TTP	39	0	1	E	0	L1
TTP	39	0	7	E	0	L1
THO	40	0	0	1152	C	1	L1
TAP	44	0	0
TAP	44	96	0
TAP	44	192	0
TAP	45	0	7
TAP	45	96	7
BRK	45	192	7
TAP	46	0	0
TAP	46	96	0
TAP	46	192	0
XTP	47	0	6
XTP	47	0	7
XTP	47	192	6
XTP	47	192	7
TAP	48	0	5
TAP	48	96	5
TAP	48	192	5
TAP	49	0	4
TAP	49	96	4
BRK	49	192	4
TAP	50	0	3
TAP	50	96	3
TAP	50	192	3
XTP	51	0	2
XTP	51	0	3
XTP	51	96	2
XTP	51	96	3
BRK	51	192	2
BRK	51	192	3
STR	52	0	1
SI_	52	0	1	96	288	5
TAP	53	192	6
STR	54	0	6
SI_	54	0	6	96	288	2
TAP	55	192	1
HLD	56	0	0	192
TAP	57	0	1
TAP	57	96	1
XTP	57	192	0
XTP	57	192	1
HLD	58	0	7	192
TAP	59	0	6
TAP	59	96	6
XTP	59	192	6
XTP	59	192	7
STR	60	0	0
SI_	60	0	0	96	288	4
TAP	62	0	7
TAP	62	192	7
TAP	63	0	0
TAP	63	96	0
TAP	63	192	0
STR	64	0	7
SI_	64	0	7	96	288	3
TAP	66	0	0
TAP	66	192	0
TAP	67	0	7
TAP	67	96	7
TAP	67	192	0
TAP	67	192	7
HLD	68	0	1	1152
HLD	68	0	6	1152

T_REC_TAP	58
T_REC_BRK	7
T_REC_XTP	15
T_REC_HLD	4
T_REC_XHO	2
T_REC_STR	4
T_REC_BST	0
T_REC_XST	0
T_REC_TTP	22
T_REC_THO	2
T_REC_SLD	4
T_REC_ALL	118
T_NUM_TAP	99
T_NUM_BRK	7
T_NUM_HLD	8
T_NUM_SLD	4
T_NUM_ALL	118
T_JUDGE_TAP	106
T_JUDGE_HLD	104
T_JUDGE_SLD	4
T_JUDGE_ALL	214
TTM_EACHPAIRS	10
TTM_SCR_TAP	49500
TTM_SCR_BRK	18200
TTM_SCR_HLD	8000
TTM_SCR_SLD	6000
TTM_SCR_ALL	81700
TTM_SCR_S	78600
TTM_SCR_SS	81000
TTM_RAT_ACV	10086

