VERSION	0.00.00	1.03.00
FES_MODE	0
BPM_DEF	276.000	276.000	276.000	271.000
MET_DEF	4	4
RESOLUTION	384
CLK_DEF	480
COMPATIBLE_CODE	MA2

BPM	0	0	276.000
BPM	9	288	271.000
BPM	10	96	276.000
MET	0	0	4	5
MET	6	96	4	6
MET	7	288	4	5
MET	11	192	4	6
MET	13	0	4	5
MET	16	288	4	6
MET	18	96	4	5
MET	22	0	4	6
MET	23	192	4	5
MET	27	96	4	6
MET	28	288	4	5
MET	32	192	4	6
MET	34	0	4	5
MET	37	288	4	6
MET	39	96	4	5
MET	43	0	4	6
MET	44	192	4	4
MET	79	192	4	2
MET	80	0	4	4
MET	83	0	4	2
MET	83	192	4	4
MET	86	192	4	2
MET	87	0	4	4
MET	123	0	4	5
MET	126	288	4	6
MET	128	96	4	5
MET	132	0	4	6
MET	133	192	4	5
MET	137	96	4	6
MET	138	288	4	5
MET	142	192	4	6
MET	144	0	4	5
MET	147	288	4	6
MET	149	96	4	5
MET	153	0	4	7

HLD	2	192	3	384
HLD	2	192	5	384
HLD	3	288	2	384
HLD	3	288	4	384
HLD	5	0	3	384
HLD	5	0	5	384
TAP	6	96	6
TAP	6	192	5
TAP	6	288	4
TAP	7	0	3
TAP	7	48	4
TAP	7	96	3
TAP	7	192	3
TAP	7	192	4
HLD	7	288	2	384
HLD	7	288	4	384
HLD	9	0	3	384
HLD	9	0	5	384
HLD	10	96	2	384
HLD	10	96	4	384
TAP	11	192	1
TAP	11	288	2
TAP	12	0	3
TAP	12	96	4
TAP	12	144	3
TAP	12	192	4
BRK	12	288	1
BRK	12	288	6
TAP	13	0	5
TAP	13	48	4
TAP	13	96	5
TAP	13	144	4
TAP	13	240	4
TAP	13	240	5
TAP	13	336	6
TAP	14	0	6
TAP	14	96	2
TAP	14	144	3
TAP	14	192	2
TAP	14	240	3
TAP	14	336	2
TAP	14	336	3
TAP	15	48	1
TAP	15	96	1
TAP	15	192	5
TAP	15	240	4
TAP	15	288	5
TAP	15	336	4
TAP	16	48	4
TAP	16	48	5
TAP	16	144	6
TAP	16	192	6
TAP	16	288	3
TAP	16	288	5
TAP	17	0	4
STR	17	96	3
SI_	17	96	3	96	96	7
TAP	18	0	0
TAP	18	0	6
TAP	18	96	2
TAP	18	144	3
TAP	18	192	2
TAP	18	240	3
TAP	18	336	2
TAP	18	336	3
TAP	19	48	1
TAP	19	96	1
TAP	19	192	5
TAP	19	240	4
TAP	19	288	5
TAP	19	336	4
TAP	20	48	4
TAP	20	48	5
TAP	20	144	6
TAP	20	192	6
TAP	20	288	2
TAP	20	336	3
TAP	21	0	2
TAP	21	48	3
TAP	21	144	2
TAP	21	144	3
TAP	21	240	1
TAP	21	288	1
TAP	22	0	2
TAP	22	0	4
TAP	22	96	3
STR	22	192	4
SI_	22	192	4	96	96	0
TAP	23	96	1
TAP	23	96	7
TAP	23	192	5
TAP	23	240	4
TAP	23	288	5
TAP	23	336	4
TAP	24	48	3
TAP	24	48	6
TAP	24	144	5
TAP	24	192	5
TAP	24	288	2
TAP	24	336	3
TAP	25	0	2
TAP	25	48	3
TAP	25	144	1
TAP	25	144	4
TAP	25	240	2
TAP	25	288	2
TAP	26	0	5
TAP	26	48	4
TAP	26	96	5
TAP	26	144	4
TAP	26	240	3
TAP	26	240	6
TAP	26	336	5
TAP	27	0	5
TAP	27	96	2
TAP	27	96	4
TAP	27	192	3
TAP	27	192	5
STR	27	288	4
SI_	27	288	4	96	96	0
TAP	27	288	6
TAP	28	192	1
TAP	28	192	7
TAP	28	288	2
TAP	28	336	3
TAP	29	0	2
TAP	29	48	3
TAP	29	144	1
TAP	29	144	4
TAP	29	240	2
TAP	29	288	2
TAP	30	0	5
TAP	30	48	4
TAP	30	96	5
TAP	30	144	4
TAP	30	240	3
TAP	30	240	6
TAP	30	336	5
TAP	31	0	5
TAP	31	96	2
TAP	31	144	3
TAP	31	192	2
TAP	31	240	3
TAP	31	336	1
TAP	31	336	4
TAP	32	48	2
TAP	32	96	2
TAP	32	192	3
TAP	32	192	5
TAP	32	288	2
TAP	32	288	4
TAP	33	0	1
STR	33	0	3
SI_	33	0	3	96	96	7
TAP	33	288	0
TAP	33	288	6
TAP	34	0	1
TAP	34	48	0
TAP	34	96	1
TAP	34	144	0
TAP	34	240	2
TAP	34	240	7
TAP	34	336	3
TAP	35	0	3
TAP	35	96	6
TAP	35	144	7
TAP	35	192	6
TAP	35	240	7
TAP	35	336	0
TAP	35	336	5
TAP	36	48	4
TAP	36	96	4
TAP	36	192	1
TAP	36	240	0
TAP	36	288	1
TAP	36	336	0
TAP	37	48	2
TAP	37	48	7
TAP	37	144	3
TAP	37	192	3
TAP	37	288	0
TAP	37	288	2
TAP	38	0	1
TAP	38	0	7
STR	38	96	0
SI_	38	96	0	96	96	4
TAP	38	96	6
TAP	39	0	2
TAP	39	0	5
TAP	39	96	3
TAP	39	144	4
TAP	39	192	3
TAP	39	240	4
TAP	39	336	2
TAP	39	336	3
TAP	40	48	1
TAP	40	48	4
TAP	40	144	0
TAP	40	144	5
TAP	40	192	6
TAP	40	240	7
TAP	40	288	6
TAP	40	336	7
TAP	41	48	0
TAP	41	48	7
TAP	41	144	1
TAP	41	144	6
TAP	41	240	2
TAP	41	240	5
TAP	41	288	4
TAP	41	336	3
TAP	42	0	4
TAP	42	48	3
TAP	42	144	4
TAP	42	144	5
TAP	42	240	3
TAP	42	240	6
TAP	42	336	2
TAP	42	336	7
TAP	43	0	1
TAP	43	48	3
TAP	43	96	2
TAP	43	144	6
TAP	43	192	4
TAP	43	240	5
TAP	43	288	3
TAP	43	320	4
TAP	43	352	3
TAP	44	0	4
TAP	44	32	3
TAP	44	64	4
TAP	44	96	3
BRK	44	192	1
BRK	44	192	6
HLD	45	144	5	336
HLD	46	96	4	432
TAP	47	144	5
TAP	48	0	3
TAP	48	96	3
STR	48	288	6
SCR	48	288	6	96	480	1
TTP	50	192	2	E	0	M1
TTP	51	0	3	E	0	M1
TTP	51	192	5	E	0	M1
TTP	52	0	6	E	0	M1
HLD	52	192	2	336
HLD	53	144	3	240
TAP	54	0	2
TAP	54	192	3
TAP	54	192	5
TAP	55	0	2
TAP	55	0	4
TTP	55	144	0	C	0	M1
TTP	55	144	2	B	0	M1
TTP	55	144	5	B	0	M1
TAP	56	192	5
TAP	56	288	5
TAP	57	0	4
TAP	57	0	5
TAP	57	96	5
TAP	57	192	2
TAP	57	288	2
TAP	58	0	2
TAP	58	0	3
TAP	58	96	2
TAP	58	192	5
TAP	58	288	5
STR	59	0	3
SI_	59	0	3	96	96	0
STR	59	0	4
SI_	59	0	4	96	96	7
BRK	60	0	1
BRK	60	0	6
TAP	60	192	3
TAP	60	192	5
TAP	60	288	5
TAP	61	0	3
TAP	61	0	4
TAP	61	96	2
TAP	61	192	2
TAP	61	192	4
TAP	61	288	3
TAP	62	0	4
TAP	62	0	5
STR	62	96	5
SCL	62	96	5	96	192	2
TAP	62	288	1
STR	63	0	1
SCL	63	0	1	96	192	6
TAP	64	0	4
TAP	64	96	4
TAP	64	192	2
TAP	64	192	4
TAP	64	288	3
TAP	65	0	3
TAP	65	0	5
TAP	65	96	4
STR	65	192	2
SI_	65	192	2	96	192	5
SCR	65	192	2	96	192	5
TTP	66	192	7	E	0	M1
TTP	66	288	6	E	0	M1
TTP	67	0	1	E	0	M1
TTP	67	96	2	E	0	M1
TTP	67	192	4	B	0	M1
TTP	67	288	3	B	0	M1
TTP	68	0	1	B	0	M1
TTP	68	0	6	B	0	M1
TAP	68	192	2
TAP	68	192	4
TAP	68	288	2
TAP	69	0	3
TAP	69	0	4
TAP	69	96	5
TAP	69	192	3
TAP	69	192	5
TAP	69	288	4
TAP	70	0	2
TAP	70	0	3
TAP	70	96	2
TAP	70	192	4
TAP	70	288	3
TAP	71	0	3
TAP	71	0	4
TAP	71	48	3
TAP	71	48	4
HLD	71	144	3	240
HLD	71	144	4	240
TAP	72	192	3
STR	72	192	4
SI_	72	192	4	96	192	7
TAP	72	288	3
TAP	73	0	2
STR	73	192	3
SI_	73	192	3	96	192	0
TAP	73	192	6
TAP	73	288	6
TAP	74	0	7
TAP	74	192	2
TAP	74	256	2
TAP	74	320	2
TAP	75	0	5
TAP	75	64	5
TAP	75	128	5
STR	75	192	3
SXR	75	192	3	96	192	1
STR	75	192	4
SXL	75	192	4	96	192	6
XST	76	192	0
SCR	76	192	0	96	864	4
XTP	76	192	7
TTP	77	192	2	B	0	M1
TTP	78	0	3	B	0	M1
HLD	78	192	5	384
TAP	79	192	4
TAP	80	0	2
STR	80	0	5
SCR	80	0	5	96	864	2
TTP	81	0	7	B	0	M1
TTP	81	192	0	B	0	M1
HLD	82	0	3	384
TAP	83	0	4
STR	83	192	2
SCL	83	192	2	96	1056	3
TTP	84	0	1	B	0	M1
TTP	84	192	0	B	0	M1
TTP	85	0	7	B	0	M1
TTP	85	192	6	B	0	M1
TTP	86	0	5	B	0	M1
TTP	86	192	4	B	0	M1
THO	87	0	0	768	C	0	M1
TTP	87	0	2	E	0	M1
TTP	87	0	6	E	0	M1
TAP	90	0	3
TAP	90	48	4
TAP	90	96	3
TAP	90	144	4
BRK	90	240	1
BRK	90	240	6
TAP	91	0	2
TAP	91	0	3
TAP	91	96	1
TAP	91	144	7
TAP	91	192	0
TAP	91	288	6
TAP	91	336	4
STR	92	0	5
SXL	92	0	5	96	288	0
TAP	92	96	3
TAP	92	192	2
HLD	92	288	1	96
TAP	93	96	1
BRK	93	192	2
BRK	93	192	7
STR	94	0	1
SCR	94	0	1	96	96	4
STR	94	0	5
SCR	94	0	5	96	96	0
TAP	95	0	0
TAP	95	0	7
TAP	95	96	1
TAP	95	144	3
TAP	95	192	2
TAP	95	288	5
TAP	95	336	4
STR	96	0	6
SXR	96	0	6	96	288	3
TAP	96	96	0
TAP	96	192	1
HLD	96	288	2	96
TAP	97	96	1
STR	97	192	0
SLR	97	192	0	96	192	7
STR	97	192	5
SLL	97	192	5	96	192	6
BRK	98	192	0
BRK	98	192	5
TAP	99	0	3
TAP	99	0	4
TAP	99	96	6
TAP	99	144	0
TAP	99	192	7
TAP	99	288	1
TAP	99	336	3
STR	100	0	2
SXR	100	0	2	96	288	7
TAP	100	96	4
TAP	100	192	5
HLD	100	288	6	96
TAP	101	96	6
BRK	101	192	0
BRK	101	192	5
STR	102	0	0
SSL	102	0	0	96	192	4
STR	102	0	7
SSR	102	0	7	96	192	3
STR	103	0	0
SI_	103	0	0	96	48	4
TAP	103	96	6
STR	103	192	7
SI_	103	192	7	96	48	3
TAP	103	288	1
STR	104	0	0
SI_	104	0	0	96	48	4
TAP	104	96	6
STR	104	192	7
SCR	104	192	7	96	672	6
TTP	104	288	0	C	1	M1
TAP	107	0	4
HLD	107	0	5	192
TAP	107	96	7
HLD	107	192	4	192
TAP	107	288	7
TAP	108	0	5
TAP	108	96	3
TAP	108	144	4
TAP	108	192	2
TAP	108	288	0
TAP	108	288	1
TAP	109	0	2
HLD	109	0	3	192
TAP	109	96	0
HLD	109	192	2	192
TAP	109	288	0
TAP	110	0	3
TAP	110	96	5
TAP	110	144	4
TAP	110	192	6
TAP	110	288	0
TAP	110	288	7
XST	111	0	1
SI_	111	0	1	96	48	3
TAP	111	96	3
XST	111	192	7
SI_	111	192	7	96	48	5
TAP	111	288	5
XST	112	0	0
SI_	112	0	0	96	48	4
TAP	112	96	4
BRK	112	192	3
BRK	112	192	7
HLD	113	0	2	192
TAP	113	0	3
TAP	113	96	0
HLD	113	192	3	192
TAP	113	288	0
TAP	114	0	2
TAP	114	96	4
TAP	114	144	3
TAP	114	192	5
TAP	114	288	6
TAP	114	288	7
HLD	115	0	4	192
TAP	115	0	5
TAP	115	96	7
HLD	115	192	5	192
TAP	115	288	7
TAP	116	0	4
TAP	116	96	2
TAP	116	144	3
TAP	116	192	1
TAP	116	288	0
TAP	116	288	7
TAP	117	0	1
HLD	117	0	6	192
TAP	117	96	4
HLD	117	192	1	192
TAP	117	288	3
HLD	118	0	5	192
TAP	118	96	4
HLD	118	192	2	192
TAP	118	288	3
XTP	119	0	7
TAP	119	64	7
TAP	119	128	7
XTP	119	192	5
TAP	119	256	5
TAP	119	320	5
XTP	120	0	3
TAP	120	64	3
TAP	120	128	3
XTP	120	192	1
TAP	120	256	1
TAP	120	320	1
XTP	121	0	0
TAP	121	64	0
TAP	121	128	0
XTP	121	192	2
TAP	121	256	2
TAP	121	320	2
XTP	122	0	4
TAP	122	64	4
TAP	122	128	4
TTP	122	192	0	C	1	M1
TTP	122	192	2	B	0	M1
TTP	122	192	5	B	0	M1
TAP	123	0	6
TAP	123	48	7
TAP	123	96	6
TAP	123	144	7
TAP	123	240	0
TAP	123	240	5
TAP	123	336	4
TAP	124	0	4
TAP	124	96	1
TAP	124	144	0
TAP	124	192	1
TAP	124	240	0
TAP	124	336	2
TAP	124	336	7
TAP	125	48	3
TAP	125	96	3
TAP	125	192	6
TAP	125	240	7
TAP	125	288	6
TAP	125	336	7
TAP	126	48	0
TAP	126	48	5
TAP	126	144	4
TAP	126	192	4
TAP	126	288	1
TAP	126	288	7
TAP	127	0	0
TAP	127	0	6
TAP	127	96	5
STR	127	96	7
SI_	127	96	7	96	96	3
BRK	128	0	2
BRK	128	0	4
TAP	128	96	1
TAP	128	144	0
TAP	128	192	1
TAP	128	240	0
TAP	128	336	2
TAP	128	336	7
TAP	129	48	3
TAP	129	96	3
TAP	129	192	6
TAP	129	240	7
TAP	129	288	6
TAP	129	336	7
TAP	130	48	0
TAP	130	48	5
TAP	130	144	4
TAP	130	192	4
TAP	130	288	1
TAP	130	336	0
TAP	131	0	1
TAP	131	48	0
TAP	131	144	2
TAP	131	144	7
TAP	131	240	3
TAP	131	288	3
TAP	132	0	0
TAP	132	0	6
TAP	132	96	1
TAP	132	96	7
STR	132	192	0
SI_	132	192	0	96	96	4
TAP	132	192	2
BRK	133	96	3
BRK	133	96	5
TAP	133	192	1
TAP	133	240	3
TAP	133	288	2
TAP	133	336	4
TAP	134	48	6
TAP	134	48	7
TAP	134	144	0
TAP	134	192	0
TAP	134	288	6
TAP	134	336	4
TAP	135	0	5
TAP	135	48	3
TAP	135	144	0
TAP	135	144	1
TAP	135	240	7
TAP	135	288	7
TAP	136	0	1
TAP	136	48	3
TAP	136	96	2
TAP	136	144	4
TAP	136	240	6
TAP	136	240	7
TAP	136	336	0
TAP	137	0	0
TAP	137	96	2
TAP	137	96	5
TAP	137	192	1
TAP	137	192	4
TAP	137	288	0
HLD	137	288	3	192
TTP	138	0	1	E	0	M1
TTP	138	32	1	B	0	M1
TTP	138	64	2	B	0	M1
TTP	138	96	3	E	0	M1
BRK	138	192	6
TAP	138	288	6
TAP	138	336	4
TAP	139	0	5
TAP	139	48	3
TAP	139	144	0
TAP	139	144	1
TAP	139	240	7
TAP	139	288	7
TAP	140	0	1
TAP	140	48	3
TAP	140	96	2
TAP	140	144	4
TAP	140	240	6
TAP	140	240	7
TAP	140	336	0
TAP	141	0	0
TAP	141	96	6
TAP	141	144	4
TAP	141	192	5
TAP	141	240	3
TAP	141	336	0
TAP	141	336	1
TAP	142	48	7
TAP	142	96	7
TAP	142	192	2
TAP	142	192	5
TAP	142	288	3
TAP	142	288	6
HLD	143	0	4	192
TAP	143	0	7
TTP	143	96	7	E	0	M1
TTP	143	128	6	B	0	M1
TTP	143	160	5	B	0	M1
TTP	143	192	5	E	0	M1
BRK	143	288	1
TAP	144	0	2
TAP	144	48	0
TAP	144	96	1
TAP	144	144	7
TAP	144	240	4
TAP	144	240	5
TAP	144	336	3
TAP	145	0	3
TAP	145	96	5
TAP	145	144	7
TAP	145	192	6
TAP	145	240	0
TAP	145	336	2
TAP	145	336	3
TAP	146	48	4
TAP	146	96	4
TAP	146	192	2
TAP	146	240	0
TAP	146	288	1
TAP	146	336	7
TAP	147	48	4
TAP	147	48	5
TAP	147	144	3
TAP	147	192	3
TAP	147	288	0
TAP	147	288	7
TAP	148	0	1
TAP	148	0	6
TAP	148	96	2
HLD	148	96	5	192
TTP	148	192	2	B	0	M1
TTP	148	224	3	B	0	M1
TTP	148	256	4	B	0	M1
TTP	148	288	5	B	0	M1
BRK	149	0	0
BRK	149	0	7
TAP	149	96	6
TAP	149	144	7
TAP	149	192	6
TAP	149	240	7
TAP	149	336	0
TAP	149	336	7
TAP	150	48	1
TAP	150	48	6
TAP	150	144	2
TAP	150	144	5
TAP	150	192	3
TAP	150	240	4
TAP	150	288	3
TAP	150	336	4
TAP	151	48	2
TAP	151	48	3
TAP	151	144	1
TAP	151	144	4
TAP	151	240	0
TAP	151	240	5
TAP	151	288	6
TAP	151	336	7
TAP	152	0	6
TAP	152	48	7
TAP	152	144	0
TAP	152	144	5
TAP	152	240	1
TAP	152	240	4
TAP	152	336	2
TAP	152	336	3
TAP	153	0	1
TAP	153	48	3
TAP	153	96	2
TAP	153	144	6
TAP	153	192	4
TAP	153	240	5
TAP	153	288	4
TAP	153	288	5
TAP	154	0	3
TAP	154	32	4
TAP	154	64	3
TAP	154	96	4
TAP	154	128	3
TAP	154	160	4
TAP	154	192	3
BRK	154	288	1
BRK	154	288	6

T_REC_TAP	566
T_REC_BRK	26
T_REC_XTP	8
T_REC_HLD	38
T_REC_XHO	0
T_REC_STR	32
T_REC_BST	0
T_REC_XST	4
T_REC_TTP	43
T_REC_THO	1
T_REC_SLD	37
T_REC_ALL	755
T_NUM_TAP	653
T_NUM_BRK	26
T_NUM_HLD	39
T_NUM_SLD	37
T_NUM_ALL	755
T_JUDGE_TAP	679
T_JUDGE_HLD	119
T_JUDGE_SLD	37
T_JUDGE_ALL	835
TTM_EACHPAIRS	137
TTM_SCR_TAP	326500
TTM_SCR_BRK	67600
TTM_SCR_HLD	39000
TTM_SCR_SLD	55500
TTM_SCR_ALL	488600
TTM_SCR_S	471450
TTM_SCR_SS	486000
TTM_RAT_ACV	10053

