VERSION	0.00.00	1.03.00
FES_MODE	0
BPM_DEF	276.000	276.000	276.000	271.000
MET_DEF	4	4
RESOLUTION	384
CLK_DEF	480
COMPATIBLE_CODE	MA2

BPM	0	0	276.000
BPM	9	288	271.000
BPM	10	96	276.000
MET	0	0	4	5
MET	6	96	4	6
MET	7	288	4	5
MET	11	192	4	6
MET	13	0	4	5
MET	16	288	4	6
MET	18	96	4	5
MET	22	0	4	6
MET	23	192	4	5
MET	27	96	4	6
MET	28	288	4	5
MET	32	192	4	6
MET	34	0	4	5
MET	37	288	4	6
MET	39	96	4	5
MET	43	0	4	6
MET	44	192	4	4
MET	79	192	4	2
MET	80	0	4	4
MET	83	0	4	2
MET	83	192	4	4
MET	86	192	4	2
MET	87	0	4	4
MET	123	0	4	5
MET	126	288	4	6
MET	128	96	4	5
MET	132	0	4	6
MET	133	192	4	5
MET	137	96	4	6
MET	138	288	4	5
MET	142	192	4	6
MET	144	0	4	5
MET	147	288	4	6
MET	149	96	4	5
MET	153	0	4	7

TAP	2	192	2
TAP	2	192	4
TAP	3	288	3
TAP	3	288	6
TAP	5	0	0
TAP	5	0	4
HLD	6	96	6	192
HLD	6	288	5	192
TAP	7	96	4
TAP	7	288	3
TAP	7	288	5
TAP	9	0	1
TAP	9	0	4
TAP	10	96	3
TAP	10	96	7
XTP	11	192	1
XTP	11	192	6
TAP	12	0	2
TAP	12	96	2
TAP	12	192	3
TAP	12	288	3
HLD	13	0	4	336
TAP	13	144	3
TAP	13	240	3
TAP	13	336	3
HLD	14	96	5	336
TAP	14	240	4
TAP	14	336	4
TAP	15	48	4
HLD	15	192	6	336
TAP	15	336	5
TAP	16	48	5
TAP	16	144	5
TAP	16	288	0
TAP	16	288	7
TAP	17	96	7
TAP	17	192	6
TAP	17	288	5
TAP	18	0	4
HLD	18	96	3	336
TAP	18	240	4
TAP	18	336	4
TAP	19	48	4
HLD	19	192	2	336
TAP	19	336	3
TAP	20	48	3
TAP	20	144	3
HLD	20	288	1	336
TAP	21	48	2
TAP	21	144	2
TAP	21	240	2
TAP	22	0	0
TAP	22	0	7
TAP	22	192	0
TAP	22	288	1
TAP	23	0	2
TAP	23	96	3
HLD	23	192	4	336
TAP	23	336	5
TAP	24	48	5
TAP	24	144	5
HLD	24	288	5	336
TAP	25	48	6
TAP	25	144	6
TAP	25	240	6
HLD	26	0	6	336
TAP	26	144	7
TAP	26	240	7
TAP	26	336	7
TAP	27	96	0
STR	27	96	7
SI_	27	96	7	96	288	3
TAP	27	288	2
TAP	28	0	2
TAP	28	96	2
HLD	28	288	3	336
TAP	29	48	2
TAP	29	144	2
TAP	29	240	2
HLD	30	0	2	336
TAP	30	144	1
TAP	30	240	1
TAP	30	336	1
HLD	31	96	1	336
TAP	31	240	0
TAP	31	336	0
TAP	32	48	0
STR	32	192	0
SI_	32	192	0	96	288	4
TAP	32	192	7
TAP	33	0	5
TAP	33	96	5
TAP	33	192	5
XTP	34	0	3
XTP	34	48	4
XTP	34	96	3
XTP	34	144	4
TAP	34	240	1
TAP	34	336	1
XTP	35	96	4
XTP	35	144	3
XTP	35	192	4
XTP	35	240	3
TAP	35	336	6
TAP	36	48	6
XTP	36	192	3
XTP	36	240	4
XTP	36	288	3
XTP	36	336	4
TAP	37	48	1
TAP	37	144	1
XTP	37	288	2
XTP	37	288	5
TAP	38	96	7
TAP	38	192	7
TAP	38	288	0
TAP	39	0	0
TAP	39	96	6
TAP	39	144	7
TAP	39	192	6
TAP	39	240	7
XTP	39	336	0
XTP	39	336	5
XTP	40	48	0
XTP	40	48	5
TAP	40	192	1
TAP	40	240	0
TAP	40	288	1
TAP	40	336	0
XTP	41	48	2
XTP	41	48	7
XTP	41	144	2
XTP	41	144	7
TAP	41	288	6
TAP	41	336	7
TAP	42	0	6
TAP	42	48	7
XTP	42	144	0
XTP	42	144	5
XTP	42	240	0
XTP	42	240	5
BRK	43	0	0
BRK	43	0	1
BRK	43	192	6
BRK	43	192	7
BRK	44	0	3
BRK	44	0	4
TAP	44	192	2
STR	44	192	5
SCR	44	192	5	96	384	2
HLD	46	96	2	288
HLD	46	96	3	288
HLD	47	144	4	240
HLD	47	144	5	240
TAP	48	288	1
TAP	48	288	6
TAP	49	96	3
TAP	49	96	4
HLD	49	192	3	144
HLD	49	192	4	144
TAP	50	192	2
TAP	50	336	2
TAP	50	336	3
TAP	51	192	5
TAP	51	336	4
TAP	51	336	5
TAP	52	144	3
TAP	52	144	4
TTP	53	0	2	B	0	M1
TTP	53	0	5	B	0	M1
TTP	54	0	1	B	0	M1
TTP	54	0	6	B	0	M1
HLD	54	192	7	192
HLD	55	0	0	192
HLD	55	192	6	288
TAP	56	0	1
HLD	56	96	1	864
TAP	56	288	0
TAP	57	0	0
TAP	57	96	0
TAP	57	192	7
TAP	57	288	7
TAP	58	0	7
TAP	58	96	7
TAP	58	192	6
TAP	58	288	6
XTP	59	0	2
XTP	59	0	6
XST	59	48	2
SCL	59	48	2	96	240	7
XST	59	48	6
SCL	59	48	6	96	240	3
BRK	60	192	2
BRK	60	192	6
TAP	61	0	0
TAP	61	0	4
HLD	61	192	2	96
HLD	61	192	6	96
TAP	61	336	2
TAP	61	336	6
TAP	62	96	0
TAP	62	96	4
TAP	62	288	1
TAP	62	288	7
TAP	63	0	2
TAP	63	0	6
STR	63	48	2
SCL	63	48	2	96	336	5
TAP	63	48	6
HLD	64	288	4	192
HLD	64	288	5	192
TAP	65	192	2
TAP	65	192	3
HLD	65	288	2	192
HLD	65	288	3	192
XTP	66	192	1
XTP	66	192	4
XTP	66	336	1
XTP	66	336	4
XTP	67	192	3
XTP	67	192	6
XTP	67	336	3
XTP	67	336	6
TAP	68	144	0
TAP	68	144	7
HLD	69	0	2	192
HLD	69	0	6	192
TAP	69	240	1
TAP	69	240	5
TAP	70	0	1
TAP	70	0	5
STR	70	192	7
SI_	70	192	7	96	96	3
STR	71	0	0
SI_	71	0	0	96	96	4
TAP	71	192	5
TAP	72	0	3
TAP	72	0	4
STR	72	96	3
SI_	72	96	3	96	144	7
STR	72	96	4
SI_	72	96	4	96	144	6
STR	73	192	3
SI_	73	192	3	96	144	1
STR	73	192	4
SI_	73	192	4	96	144	0
BRK	74	192	0
BRK	74	192	7
XTP	74	320	1
XTP	74	320	2
XTP	75	0	1
XTP	75	0	2
XTP	75	128	3
XTP	75	128	4
XTP	75	192	3
XTP	75	192	4
XTP	75	320	5
XTP	75	320	6
XTP	76	0	5
XTP	76	0	6
XTP	76	128	0
XTP	76	128	7
XST	76	192	0
SCR	76	192	0	96	288	4
XTP	76	192	7
HLD	77	192	5	768
TTP	78	192	6	E	0	M1
TTP	79	0	0	C	0	M1
TTP	79	192	2	E	0	M1
TAP	80	0	1
STR	80	0	7
SCL	80	0	7	96	288	3
HLD	81	0	2	768
TTP	82	0	2	E	0	M1
TTP	82	192	0	C	0	M1
TTP	83	0	6	E	0	M1
STR	83	192	0
SCR	83	192	0	96	288	3
TAP	83	192	6
TAP	84	0	6
STR	84	192	7
SCL	84	192	7	96	288	4
TAP	85	0	1
TAP	85	192	0
HLD	86	0	2	192
HLD	86	0	6	192
TAP	86	288	0
TAP	86	288	4
TAP	87	0	0
HLD	87	0	4	1152
TTP	87	192	1	B	0	M1
TTP	88	0	4	E	0	M1
TTP	88	192	6	B	0	M1
THO	89	0	0	384	C	1	M1
TAP	91	0	3
TAP	91	0	5
TAP	91	96	2
TAP	91	192	1
TAP	91	192	3
TAP	91	288	2
TAP	92	0	3
TAP	92	0	5
TAP	92	96	6
TAP	92	192	7
STR	92	288	0
SI_	92	288	0	96	192	4
SCL	92	288	0	96	192	4
XTP	94	0	1
BRK	94	0	3
XTP	94	192	5
BRK	94	192	7
TAP	95	0	1
TAP	95	0	7
TAP	95	96	6
TAP	95	192	5
TAP	95	192	7
TAP	95	288	6
TAP	96	0	1
TAP	96	0	7
TAP	96	96	2
TAP	96	192	3
STR	96	288	4
SI_	96	288	4	96	192	0
SCL	96	288	4	96	192	0
XTP	98	0	5
BRK	98	0	7
XTP	98	192	1
BRK	98	192	3
TAP	99	0	0
TAP	99	0	5
TAP	99	96	6
TAP	99	192	2
TAP	99	192	7
TAP	99	288	1
TAP	100	0	0
TAP	100	0	5
TAP	100	96	6
TAP	100	192	7
HLD	100	288	0	288
TAP	101	96	7
TAP	101	192	7
XST	102	0	6
SI_	102	0	6	96	144	2
TAP	102	0	7
XTP	102	192	0
HLD	103	0	1	96
HLD	103	0	5	96
HLD	103	192	2	96
HLD	103	192	6	96
HLD	104	0	3	96
HLD	104	0	7	96
TAP	104	192	0
TAP	104	192	4
BST	104	288	0
SXR	104	288	0	96	576	5
BST	104	288	4
SXR	104	288	4	96	576	1
TAP	107	0	0
TAP	107	0	4
TAP	107	192	1
TAP	107	192	5
TAP	108	0	2
TAP	108	0	6
TAP	108	96	7
TAP	108	192	0
TAP	108	288	1
HLD	109	0	2	384
TTP	109	192	1	B	0	M1
TTP	109	192	1	E	0	M1
HLD	110	0	5	384
TTP	110	192	6	B	0	M1
TTP	110	192	7	E	0	M1
XTP	111	0	2
TAP	111	96	3
XTP	111	192	1
XTP	111	192	4
TAP	111	288	5
XTP	112	0	3
XTP	112	0	6
TAP	112	96	7
XTP	112	192	0
XTP	112	192	5
TAP	112	288	1
HLD	113	0	2	192
HLD	113	0	7	192
TAP	114	0	2
TAP	114	0	3
STR	114	144	2
SCL	114	144	2	96	336	5
STR	114	144	3
SUL	114	144	3	96	336	4
XTP	116	0	0
XTP	116	0	5
TAP	116	96	6
XTP	116	192	2
XTP	116	192	7
TAP	116	288	1
HLD	117	0	0	192
HLD	117	0	5	192
TAP	118	0	4
TAP	118	0	5
TAP	118	144	4
TAP	118	144	5
TTP	119	0	4	B	0	M1
TTP	119	0	5	B	0	M1
TTP	119	0	6	E	0	M1
TTP	119	192	2	B	0	M1
TTP	119	192	2	E	0	M1
TTP	119	192	3	B	0	M1
TTP	120	0	6	E	0	M1
TTP	120	0	6	B	0	M1
TTP	120	0	7	B	0	M1
TTP	120	192	0	B	0	M1
TTP	120	192	1	B	0	M1
TTP	120	192	2	E	0	M1
XTP	121	0	6
XTP	121	64	7
XTP	121	128	6
XTP	121	192	1
XTP	121	256	0
XTP	121	320	1
XTP	122	0	5
XTP	122	64	4
XTP	122	128	5
XTP	122	192	2
XTP	122	256	3
XTP	122	320	2
HLD	123	0	4	336
TAP	123	144	5
TAP	123	240	5
TAP	123	336	5
HLD	124	96	0	336
TAP	124	240	1
TAP	124	336	1
TAP	125	48	1
HLD	125	192	5	336
TAP	125	336	4
TAP	126	48	4
TAP	126	144	4
TTP	126	288	3	E	0	M1
TTP	127	0	5	B	0	M1
TTP	127	96	1	B	0	M1
TTP	127	192	7	E	0	M1
TTP	127	288	0	B	0	M1
TTP	127	288	1	E	0	M1
HLD	128	96	3	336
TAP	128	240	2
TAP	128	336	2
TAP	129	48	2
HLD	129	192	7	336
TAP	129	336	6
TAP	130	48	6
TAP	130	144	6
HLD	130	288	2	336
TAP	131	48	3
TAP	131	144	3
TAP	131	240	3
TTP	132	0	5	E	0	M1
TTP	132	96	2	B	0	M1
TTP	132	192	6	B	0	M1
TTP	132	288	1	E	0	M1
TTP	133	0	7	E	0	M1
TTP	133	0	7	B	0	M1
HLD	133	192	5	336
TAP	133	336	6
TAP	134	48	6
TAP	134	144	6
HLD	134	288	2	336
TAP	135	48	1
TAP	135	144	1
TAP	135	240	1
HLD	136	0	6	336
TAP	136	144	5
TAP	136	240	5
TAP	136	336	5
TTP	137	96	0	E	0	M1
TTP	137	192	6	E	0	M1
TTP	137	288	4	E	0	M1
TTP	138	0	2	E	0	M1
TTP	138	96	0	C	0	M1
HLD	138	288	2	336
TAP	139	48	1
TAP	139	144	1
TAP	139	240	1
HLD	140	0	5	336
TAP	140	144	6
TAP	140	240	6
TAP	140	336	6
HLD	141	96	1	336
TAP	141	240	2
TAP	141	336	2
TAP	142	48	2
TTP	142	192	0	E	0	M1
TTP	142	288	2	E	0	M1
TTP	143	0	4	E	0	M1
TTP	143	96	6	E	0	M1
TTP	143	192	0	C	0	M1
XTP	144	0	5
XTP	144	48	4
XTP	144	96	5
XTP	144	144	4
TAP	144	240	7
TAP	144	336	0
TAP	144	336	7
XTP	145	96	2
XTP	145	144	3
XTP	145	192	2
XTP	145	240	3
TAP	145	336	0
TAP	146	48	0
TAP	146	48	7
XTP	146	192	5
XTP	146	240	4
XTP	146	288	5
XTP	146	336	4
TAP	147	48	7
TAP	147	144	0
TAP	147	144	7
TTP	147	288	0	E	0	M1
TTP	148	0	6	E	0	M1
TTP	148	96	4	E	0	M1
TTP	148	192	2	E	0	M1
TTP	148	288	0	C	0	M1
TAP	149	96	1
TAP	149	144	0
TAP	149	192	1
TAP	149	240	0
XTP	149	336	2
XTP	149	336	7
BRK	150	48	2
BRK	150	48	7
TAP	150	192	6
TAP	150	240	7
TAP	150	288	6
TAP	150	336	7
XTP	151	48	0
XTP	151	48	5
BRK	151	144	0
BRK	151	144	5
TAP	151	288	1
TAP	151	336	0
TAP	152	0	1
TAP	152	48	0
XTP	152	144	2
XTP	152	144	7
BRK	152	240	2
BRK	152	240	7
STR	153	0	4
SCR	153	0	4	96	384	3
SUR	153	0	4	96	384	3
BRK	154	288	1
BRK	154	288	6

T_REC_TAP	261
T_REC_BRK	22
T_REC_XTP	99
T_REC_HLD	62
T_REC_XHO	0
T_REC_STR	18
T_REC_BST	2
T_REC_XST	4
T_REC_TTP	56
T_REC_THO	1
T_REC_SLD	27
T_REC_ALL	552
T_NUM_TAP	438
T_NUM_BRK	24
T_NUM_HLD	63
T_NUM_SLD	27
T_NUM_ALL	552
T_JUDGE_TAP	462
T_JUDGE_HLD	207
T_JUDGE_SLD	27
T_JUDGE_ALL	696
TTM_EACHPAIRS	111
TTM_SCR_TAP	219000
TTM_SCR_BRK	62400
TTM_SCR_HLD	63000
TTM_SCR_SLD	40500
TTM_SCR_ALL	384900
TTM_SCR_S	371050
TTM_SCR_SS	382500
TTM_RAT_ACV	10062

