VERSION	0.00.00	1.03.00
FES_MODE	0
BPM_DEF	276.000	276.000	276.000	271.000
MET_DEF	4	4
RESOLUTION	384
CLK_DEF	480
COMPATIBLE_CODE	MA2

BPM	0	0	276.000
BPM	9	288	271.000
BPM	10	96	276.000
MET	0	0	4	5
MET	6	96	4	6
MET	7	288	4	5
MET	11	192	4	6
MET	13	0	4	5
MET	16	288	4	6
MET	18	96	4	5
MET	22	0	4	6
MET	23	192	4	5
MET	27	96	4	6
MET	28	288	4	5
MET	32	192	4	6
MET	34	0	4	5
MET	37	288	4	6
MET	39	96	4	5
MET	43	0	4	6
MET	44	192	4	4
MET	79	192	4	2
MET	80	0	4	4
MET	83	0	4	2
MET	83	192	4	4
MET	86	192	4	2
MET	87	0	4	4
MET	123	0	4	5
MET	126	288	4	6
MET	128	96	4	5
MET	132	0	4	6
MET	133	192	4	5
MET	137	96	4	6
MET	138	288	4	5
MET	142	192	4	6
MET	144	0	4	5
MET	147	288	4	6
MET	149	96	4	5
MET	153	0	4	7

XHO	2	192	5	480
XTP	3	288	4
HLD	5	0	2	480
TAP	6	96	3
TAP	7	288	5
TAP	8	96	5
TAP	8	288	4
TAP	8	288	5
TAP	9	0	4
TAP	9	0	5
TAP	10	96	3
TAP	10	288	3
STR	11	96	3
SI_	11	96	3	96	384	0
STR	11	96	4
SI_	11	96	4	96	384	7
TAP	13	0	6
TAP	13	96	6
TAP	13	288	6
TAP	13	288	7
TAP	14	96	0
TAP	14	192	0
TAP	15	0	0
TAP	15	0	7
TAP	15	192	1
TAP	15	288	1
TAP	16	96	0
TAP	16	96	1
TAP	16	288	7
TAP	17	0	7
TAP	17	96	7
TAP	17	288	1
TAP	17	288	6
TAP	18	96	2
TAP	18	192	2
TAP	19	0	2
TAP	19	0	3
TAP	19	192	4
TAP	19	288	4
TAP	20	96	3
TAP	20	96	4
TAP	20	288	5
TAP	21	0	5
TAP	21	192	4
TAP	21	192	5
TAP	22	0	3
XTP	22	192	2
XTP	22	192	5
TAP	23	192	6
TAP	23	288	6
TAP	24	96	0
TAP	24	96	7
TAP	24	288	1
TAP	25	0	1
TAP	25	192	0
TAP	25	192	1
TAP	26	0	6
TAP	26	96	6
TAP	26	288	6
TAP	26	288	7
TAP	27	96	0
TAP	27	192	0
TAP	27	288	0
TAP	28	96	1
TAP	28	96	6
TAP	28	288	2
TAP	29	0	2
TAP	29	192	2
TAP	29	192	3
TAP	30	0	4
TAP	30	96	4
TAP	30	288	3
TAP	30	288	4
TAP	31	96	5
TAP	31	192	5
TAP	32	0	4
TAP	32	0	5
TAP	32	192	3
XTP	33	0	2
XTP	33	0	5
TAP	34	0	6
TAP	34	96	6
TAP	34	288	6
TAP	34	288	7
TAP	35	96	1
TAP	35	192	1
TAP	36	0	0
TAP	36	0	1
TAP	36	192	6
TAP	36	288	6
TAP	37	96	6
TAP	37	96	7
TAP	37	288	0
TAP	38	0	0
TAP	38	96	0
XTP	38	288	1
XTP	38	288	6
STR	39	96	0
SCR	39	96	0	96	384	3
STR	39	96	7
SCL	39	96	7	96	384	4
STR	41	288	3
SI_	41	288	3	96	384	0
STR	41	288	4
SI_	41	288	4	96	384	7
BRK	43	192	1
BRK	43	192	6
HLD	44	192	5	384
HLD	45	192	4	384
HLD	46	192	3	384
TAP	47	192	2
TAP	48	192	2
TAP	49	0	2
XTP	49	192	2
XTP	49	192	3
TAP	50	192	5
TAP	51	0	4
TAP	51	192	3
TAP	52	0	2
HLD	52	192	2	384
HLD	53	192	3	384
HLD	54	192	4	384
TAP	55	192	5
TAP	56	192	5
TAP	57	0	5
TAP	57	192	4
TAP	58	0	4
TAP	58	192	3
TAP	58	192	4
TAP	59	0	3
TAP	59	0	4
XTP	59	192	2
XTP	59	192	5
TAP	60	192	2
TAP	61	0	2
TAP	61	192	2
TAP	61	192	3
TAP	62	192	5
TAP	63	0	5
TAP	63	192	4
TAP	63	192	5
TAP	64	192	2
TAP	65	0	2
TAP	65	192	3
TAP	66	0	3
TAP	66	192	4
TAP	67	0	5
XTP	67	192	4
XTP	67	192	6
TAP	68	192	5
TAP	69	0	5
TAP	69	192	4
TAP	69	192	5
TAP	70	192	2
TAP	71	0	2
TAP	71	192	2
TAP	71	192	3
TAP	72	192	5
TAP	73	0	5
TAP	73	192	6
TAP	74	0	6
STR	74	192	0
SI_	74	192	0	96	384	3
STR	74	192	7
SI_	74	192	7	96	384	4
TTP	76	192	4	E	0	L1
TTP	77	192	3	B	0	L1
TTP	78	192	2	B	0	L1
TTP	80	0	1	E	0	L1
TTP	81	0	0	B	0	L1
TTP	82	0	7	B	0	L1
TTP	83	192	6	E	0	L1
TTP	84	192	5	E	0	L1
TTP	85	192	4	E	0	L1
THO	87	0	0	768	C	1	L1
TTP	87	0	2	B	0	L1
TTP	87	0	5	B	0	L1
TAP	91	0	6
TAP	91	192	6
TAP	91	192	7
TAP	92	0	1
TAP	92	192	0
TAP	92	192	1
TAP	93	0	2
TAP	93	192	2
TAP	93	192	3
XTP	94	0	1
XTP	94	0	4
HLD	95	0	2	192
TAP	95	192	3
HLD	96	0	5	192
TAP	96	192	4
STR	97	0	3
SI_	97	0	3	96	384	0
STR	97	0	4
SI_	97	0	4	96	384	7
TAP	99	0	1
TAP	99	192	0
TAP	99	192	1
TAP	100	0	6
TAP	100	192	6
TAP	100	192	7
TAP	101	0	5
TAP	101	192	4
TAP	101	192	5
XTP	102	0	3
XTP	102	0	6
TAP	103	0	2
TAP	103	192	2
TAP	103	192	3
TAP	104	0	4
STR	104	192	3
SCL	104	192	3	96	576	0
STR	104	192	4
SCR	104	192	4	96	576	7
TAP	107	0	6
TAP	107	192	5
TAP	108	0	4
TAP	108	192	3
TAP	109	0	2
TAP	109	192	1
XTP	110	0	0
XTP	110	192	0
TAP	111	0	1
TAP	111	192	2
TAP	111	192	3
XTP	112	0	1
XTP	112	0	4
TAP	113	0	5
TAP	113	192	6
TAP	114	0	7
TAP	114	192	0
TAP	115	0	1
TAP	115	192	2
TAP	116	0	3
TAP	116	192	3
TAP	116	192	4
TAP	117	0	5
TAP	117	192	6
XTP	118	0	7
XTP	118	192	7
TAP	119	0	6
TAP	119	192	4
TAP	119	192	5
XTP	120	0	3
XTP	120	0	6
TAP	121	0	7
TAP	121	192	0
TAP	121	192	7
BRK	122	0	1
BRK	122	0	6
TAP	123	0	6
TAP	123	96	6
TAP	123	288	6
TAP	123	288	7
TAP	124	96	0
TAP	124	192	0
TAP	125	0	0
TAP	125	0	7
TAP	125	192	1
TAP	125	288	1
TAP	126	96	0
TAP	126	96	1
TAP	126	288	7
TAP	127	0	7
TAP	127	96	7
TAP	127	288	1
TAP	127	288	6
TAP	128	96	2
TAP	128	192	2
TAP	129	0	2
TAP	129	0	3
TAP	129	192	4
TAP	129	288	4
TAP	130	96	3
TAP	130	96	4
TAP	130	288	5
TAP	131	0	5
TAP	131	192	4
TAP	131	192	5
TAP	132	0	3
BRK	132	192	2
BRK	132	192	5
TAP	133	192	6
TAP	133	288	6
TAP	134	96	0
TAP	134	96	7
TAP	134	288	1
TAP	135	0	1
TAP	135	192	0
TAP	135	192	1
TAP	136	0	6
TAP	136	96	6
TAP	136	288	6
TAP	136	288	7
TAP	137	96	5
TAP	137	192	5
TAP	137	288	5
TAP	138	96	4
TAP	138	96	6
TAP	138	288	6
TAP	139	0	6
TAP	139	192	6
TAP	139	192	7
TAP	140	0	0
TAP	140	96	0
TAP	140	288	0
TAP	140	288	7
TAP	141	96	1
TAP	141	192	1
TAP	142	0	0
TAP	142	0	1
TAP	142	192	0
TAP	142	192	7
BRK	143	0	1
BRK	143	0	6
TAP	144	0	1
TAP	144	96	1
TAP	144	288	0
TAP	144	288	1
TAP	145	96	6
TAP	145	192	6
TAP	146	0	6
TAP	146	0	7
TAP	146	192	1
TAP	146	288	1
TAP	147	96	0
TAP	147	96	1
TAP	147	288	0
TAP	147	288	7
TAP	148	0	0
TAP	148	0	7
TAP	148	96	0
TAP	148	96	7
XTP	148	288	1
XTP	148	288	6
TTP	149	96	1	E	0	L1
TTP	150	192	0	E	0	L1
TTP	151	288	1	E	0	L1
TTP	151	288	7	E	0	L1
THO	153	0	0	672	C	1	L1
TTP	153	0	2	B	0	L1
TTP	153	0	5	B	0	L1

T_REC_TAP	255
T_REC_BRK	8
T_REC_XTP	27
T_REC_HLD	9
T_REC_XHO	1
T_REC_STR	12
T_REC_BST	0
T_REC_XST	0
T_REC_TTP	17
T_REC_THO	2
T_REC_SLD	12
T_REC_ALL	343
T_NUM_TAP	311
T_NUM_BRK	8
T_NUM_HLD	12
T_NUM_SLD	12
T_NUM_ALL	343
T_JUDGE_TAP	319
T_JUDGE_HLD	53
T_JUDGE_SLD	12
T_JUDGE_ALL	384
TTM_EACHPAIRS	78
TTM_SCR_TAP	155500
TTM_SCR_BRK	20800
TTM_SCR_HLD	12000
TTM_SCR_SLD	18000
TTM_SCR_ALL	206300
TTM_SCR_S	199350
TTM_SCR_SS	205500
TTM_RAT_ACV	10038

