VERSION	0.00.00	1.03.00
FES_MODE	0
BPM_DEF	276.000	276.000	276.000	271.000
MET_DEF	4	4
RESOLUTION	384
CLK_DEF	480
COMPATIBLE_CODE	MA2

BPM	0	0	276.000
BPM	9	288	271.000
BPM	10	96	276.000
MET	0	0	4	5
MET	6	96	4	6
MET	7	288	4	5
MET	11	192	4	6
MET	13	0	4	5
MET	16	288	4	6
MET	18	96	4	5
MET	22	0	4	6
MET	23	192	4	5
MET	27	96	4	6
MET	28	288	4	5
MET	32	192	4	6
MET	34	0	4	5
MET	37	288	4	6
MET	39	96	4	5
MET	43	0	4	6
MET	44	192	4	4
MET	79	192	4	2
MET	80	0	4	4
MET	83	0	4	2
MET	83	192	4	4
MET	86	192	4	2
MET	87	0	4	4
MET	123	0	4	5
MET	126	288	4	6
MET	128	96	4	5
MET	132	0	4	6
MET	133	192	4	5
MET	137	96	4	6
MET	138	288	4	5
MET	142	192	4	6
MET	144	0	4	5
MET	147	288	4	6
MET	149	96	4	5
MET	153	0	4	7

TAP	13	0	3
TAP	14	96	3
TAP	15	192	3
HLD	16	288	3	288
TAP	18	96	4
TAP	19	192	4
TAP	20	288	4
HLD	22	0	4	288
TAP	23	192	3
TAP	23	192	4
TAP	24	288	3
TAP	24	288	4
TAP	26	0	3
TAP	26	0	4
HLD	27	96	3	288
TAP	28	288	3
TAP	28	288	4
TAP	30	0	3
TAP	30	0	4
TAP	31	96	3
TAP	31	96	4
HLD	32	192	4	288
XTP	34	0	3
XTP	35	96	2
XTP	36	192	1
HLD	37	288	0	288
HLD	37	288	7	288
XTP	39	96	7
XTP	40	192	6
XTP	41	288	5
TAP	43	0	3
TAP	43	0	4
TAP	43	288	3
TAP	43	288	4
HLD	44	192	2	2304
HLD	44	192	5	2304
XHO	52	144	3	432
XHO	52	144	4	432
TAP	54	192	3
TAP	55	0	3
TAP	55	192	3
XTP	56	192	4
XTP	57	192	4
TAP	58	192	3
TAP	58	192	4
TAP	59	0	3
TAP	59	0	4
BRK	59	192	3
BRK	59	192	4
TAP	60	192	3
TAP	61	0	3
TAP	61	192	3
TAP	62	192	2
TAP	63	0	2
TAP	63	192	2
TAP	64	192	1
TAP	65	0	1
TAP	65	192	1
HLD	66	192	0	384
XTP	68	192	7
TAP	69	0	7
TAP	69	192	7
TAP	70	192	6
TAP	71	0	6
TAP	71	192	6
TAP	72	192	5
TAP	73	0	5
TAP	73	192	5
HLD	74	192	4	384
STR	76	192	3
SI_	76	192	3	96	672	0
STR	80	0	7
SI_	80	0	7	96	672	4
HLD	83	192	3	384
TAP	85	0	3
HLD	85	192	4	384
STR	87	0	3
SI_	87	0	3	96	672	0
STR	87	0	4
SI_	87	0	4	96	672	7
TAP	91	0	7
TAP	91	192	7
TAP	92	0	7
TAP	93	0	6
TAP	93	192	6
TAP	94	0	6
TAP	95	0	5
TAP	95	192	5
TAP	96	0	5
TAP	97	0	4
TAP	97	192	4
TAP	98	0	3
BRK	98	192	3
TAP	99	0	4
TAP	99	192	4
TAP	100	0	4
TAP	101	0	3
TAP	101	192	3
TAP	102	0	3
TAP	103	0	2
TAP	103	192	2
TAP	104	0	2
STR	105	0	1
SI_	105	0	1	96	672	5
TTP	109	0	6	B	0	L1
TTP	111	0	7	B	0	L1
TTP	113	0	0	B	0	L1
TTP	115	0	1	B	0	L1
TTP	117	0	2	B	0	L1
THO	119	0	0	768	C	1	L1
XTP	123	0	7
XTP	123	144	7
XTP	124	96	0
XTP	124	240	0
XTP	125	192	7
XTP	125	336	7
HLD	126	288	0	288
HLD	126	288	7	288
XTP	128	96	0
XTP	128	240	0
XTP	129	192	7
XTP	129	336	7
XTP	130	288	0
XTP	131	48	0
HLD	132	0	0	288
HLD	132	0	7	288
XTP	133	192	7
XTP	133	336	7
XTP	134	288	6
XTP	135	48	6
XTP	136	0	5
XTP	136	144	5
HLD	137	96	3	288
HLD	137	96	4	288
XTP	138	288	3
XTP	139	48	3
XTP	140	0	2
XTP	140	144	2
XTP	141	96	1
XTP	141	240	1
HLD	142	192	0	288
HLD	142	192	7	288
XTP	144	0	6
XTP	144	0	7
XTP	144	144	6
XTP	144	144	7
XTP	145	96	0
XTP	145	96	1
XTP	145	240	0
XTP	145	240	1
XTP	146	192	6
XTP	146	192	7
XTP	146	336	6
XTP	146	336	7
HLD	147	288	0	288
HLD	147	288	7	288
XTP	149	96	1
XTP	149	96	7
XTP	149	240	1
XTP	149	240	7
XTP	150	192	0
XTP	150	192	6
XTP	150	336	0
XTP	150	336	6
XTP	151	288	1
XTP	151	288	7
XTP	152	48	1
XTP	152	48	7
THO	153	0	0	672	C	1	L1

T_REC_TAP	68
T_REC_BRK	3
T_REC_XTP	57
T_REC_HLD	22
T_REC_XHO	2
T_REC_STR	5
T_REC_BST	0
T_REC_XST	0
T_REC_TTP	5
T_REC_THO	2
T_REC_SLD	5
T_REC_ALL	169
T_NUM_TAP	135
T_NUM_BRK	3
T_NUM_HLD	26
T_NUM_SLD	5
T_NUM_ALL	169
T_JUDGE_TAP	138
T_JUDGE_HLD	137
T_JUDGE_SLD	5
T_JUDGE_ALL	280
TTM_EACHPAIRS	32
TTM_SCR_TAP	67500
TTM_SCR_BRK	7800
TTM_SCR_HLD	26000
TTM_SCR_SLD	7500
TTM_SCR_ALL	108800
TTM_SCR_S	105250
TTM_SCR_SS	108500
TTM_RAT_ACV	10027

