VERSION	0.00.00	1.03.00
FES_MODE	0
BPM_DEF	145.000	145.000	145.000	145.000
MET_DEF	4	4
RESOLUTION	384
CLK_DEF	384
COMPATIBLE_CODE	MA2

BPM	0	0	145.000
MET	0	0	4	4

TAP	1	288	3
TAP	1	288	4
XHO	2	0	2	192
TAP	2	0	5
XHO	2	192	1	192
XHO	3	0	0	192
TAP	3	192	7
TAP	3	288	6
TAP	4	0	2
XHO	4	0	5	192
XHO	4	192	6	192
XHO	5	0	7	192
TAP	5	192	0
TAP	5	288	1
TAP	6	0	2
HLD	6	0	4	96
TAP	6	96	3
HLD	6	192	3	96
TAP	6	192	5
TAP	6	288	4
TAP	7	0	1
HLD	7	0	3	96
TAP	7	96	2
TAP	7	192	4
TAP	7	192	5
TAP	7	288	3
TAP	7	336	2
HLD	8	0	1	96
TAP	8	0	4
TAP	8	96	4
TAP	8	144	5
HLD	8	192	3	96
TAP	8	192	6
TAP	8	288	4
THO	9	0	0	192	C	0	M1
TTP	9	0	1	B	0	M1
TTP	9	0	6	B	0	M1
XTP	9	288	1
XTP	9	288	6
XTP	10	0	2
TAP	10	24	3
TAP	10	72	3
TAP	10	96	1
TAP	10	144	1
TAP	10	192	5
TAP	10	216	4
TAP	10	264	4
TAP	10	288	6
TAP	10	336	6
STR	11	0	6
SI_	11	0	6	96	48	4
TAP	11	0	7
STR	11	96	0
SI_	11	96	0	96	48	4
TAP	11	192	6
TAP	11	240	6
TAP	11	288	3
TAP	11	288	6
TAP	12	0	5
TAP	12	24	4
TAP	12	72	4
TAP	12	96	6
TAP	12	144	6
TAP	12	192	2
TAP	12	216	3
TAP	12	264	3
TAP	12	288	1
TAP	12	336	1
TAP	13	0	1
TAP	13	0	4
TAP	13	48	2
TAP	13	96	3
TAP	13	96	4
TAP	13	144	5
TAP	13	192	3
TAP	13	192	6
TTP	13	288	2	B	0	M1
TTP	13	288	3	B	0	M1
TTP	13	288	6	B	0	M1
TTP	13	288	7	B	0	M1
XTP	14	0	5
TAP	14	24	4
TAP	14	72	4
TAP	14	96	7
TAP	14	144	7
TAP	14	192	2
TAP	14	216	3
TAP	14	264	3
TAP	14	288	0
TAP	14	336	0
STR	15	0	1
SI_	15	0	1	96	48	3
TAP	15	0	4
STR	15	96	7
SI_	15	96	7	96	48	3
TAP	15	192	1
TAP	15	240	1
TAP	15	288	1
TAP	15	288	7
TAP	16	0	2
TAP	16	24	4
TAP	16	72	4
TAP	16	96	0
TAP	16	144	0
TAP	16	192	5
TAP	16	216	3
TAP	16	264	3
TAP	16	288	7
TAP	16	336	7
TAP	17	0	0
TAP	17	0	6
TAP	17	48	1
TAP	17	96	2
TAP	17	96	4
TAP	17	144	5
STR	17	192	1
SI_	17	192	1	96	48	3
XST	17	192	6
SI_	17	192	6	96	48	4
TAP	18	0	2
TAP	18	0	4
TAP	18	96	2
TAP	18	96	4
TAP	18	144	2
HLD	18	192	2	96
TAP	18	192	4
TTP	18	288	6	B	0	M1
TTP	18	288	7	B	0	M1
TAP	19	0	4
TAP	19	0	5
TAP	19	48	3
HLD	19	96	2	96
STR	19	96	5
SI_	19	96	5	96	48	3
TTP	19	288	1	B	0	M1
TTP	19	288	2	B	0	M1
HLD	20	0	3	96
TAP	20	0	5
TAP	20	96	5
TAP	20	144	5
TAP	20	192	4
HLD	20	192	5	96
TTP	20	288	0	B	0	M1
TTP	20	288	1	E	0	M1
TAP	21	0	2
TAP	21	0	3
TAP	21	48	4
STR	21	96	2
SCR	21	96	2	96	48	4
HLD	21	96	5	96
TTP	21	288	5	B	0	M1
TTP	21	288	5	E	0	M1
STR	22	0	6
SI_	22	0	6	96	48	4
TTP	22	96	4	B	0	M1
STR	22	192	1
SI_	22	192	1	96	48	3
TTP	22	288	3	B	0	M1
STR	23	0	6
SI_	23	0	6	96	48	4
TTP	23	96	0	C	0	M1
XTP	23	192	1
XTP	23	192	6
TAP	23	288	3
TAP	23	288	4
TAP	23	336	4
HLD	24	0	2	96
TAP	24	0	4
TAP	24	96	3
TAP	24	144	4
TAP	24	192	1
STR	24	192	5
SCL	24	192	5	96	96	2
STR	24	288	2
SXL	24	288	2	96	288	5
XHO	25	0	0	192
TAP	25	288	1
TAP	26	0	2
HLD	26	0	3	96
TAP	26	96	1
TAP	26	144	2
HLD	26	192	3	192
TAP	26	192	5
TTP	26	288	7	B	0	M1
TTP	26	288	7	E	0	M1
TAP	27	0	5
TAP	27	48	2
TAP	27	48	4
TAP	27	96	1
HLD	27	96	3	96
TTP	27	192	1	B	0	M1
TTP	27	192	1	E	0	M1
XTP	27	288	3
XTP	27	288	4
HLD	28	0	3	96
TAP	28	0	5
TAP	28	96	6
TAP	28	144	2
TAP	28	144	5
HLD	28	192	1	192
TAP	28	192	4
TTP	28	288	7	B	0	M1
TTP	28	288	7	E	0	M1
TAP	29	0	4
TAP	29	48	2
TAP	29	48	5
TAP	29	96	3
HLD	29	96	6	96
TTP	29	192	0	B	0	M1
TTP	29	192	1	E	0	M1
XTP	29	288	2
XTP	29	288	4
STR	30	0	1
SI_	30	0	1	96	48	3
TTP	30	96	3	B	0	M1
TTP	30	96	4	B	0	M1
STR	30	192	6
SI_	30	192	6	96	48	4
TTP	30	288	2	B	0	M1
TTP	30	288	2	E	0	M1
STR	31	0	1
SI_	31	0	1	96	48	3
TTP	31	96	6	B	0	M1
TTP	31	96	7	E	0	M1
XTP	31	192	0
XTP	31	192	7
XTP	31	288	2
XTP	31	288	5
TAP	31	336	2
TAP	32	0	3
HLD	32	0	6	96
TAP	32	96	3
TAP	32	144	4
HLD	32	192	1	96
TAP	32	192	5
TAP	32	288	6
TAP	32	336	0
TAP	33	0	1
TAP	33	0	7
TAP	33	48	1
TAP	33	48	7
TAP	33	96	3
TAP	33	96	5
TAP	33	144	3
TAP	33	144	5
TAP	33	192	2
TAP	33	216	4
TAP	33	240	2
TAP	33	264	4
BRK	33	288	1
HLD	34	0	3	72
HLD	34	72	1	72
STR	34	144	0
SCR	34	144	0	96	48	3
TAP	34	192	0
HLD	34	240	7	96
TAP	34	336	0
STR	35	0	0
SI_	35	0	0	96	48	3
STR	35	96	4
SI_	35	96	4	96	48	7
STR	35	192	0
SCR	35	192	0	96	48	3
TAP	35	288	4
HLD	36	0	4	72
HLD	36	72	6	72
STR	36	144	7
SCL	36	144	7	96	48	4
TAP	36	192	7
HLD	36	240	0	96
TAP	36	336	7
STR	37	0	7
SI_	37	0	7	96	48	4
STR	37	96	3
SI_	37	96	3	96	48	0
STR	37	192	7
SCL	37	192	7	96	48	4
TAP	37	288	3
HLD	38	0	3	72
HLD	38	72	1	72
STR	38	144	0
SCR	38	144	0	96	48	3
TAP	38	192	0
HLD	38	240	7	96
TAP	38	336	0
STR	39	0	0
SI_	39	0	0	96	48	3
STR	39	96	4
SCR	39	96	4	96	48	7
TAP	39	192	2
TTP	39	288	3	B	0	M1
TTP	39	288	3	E	0	M1
TTP	39	288	5	B	0	M1
TTP	39	288	6	E	0	M1
TAP	40	0	2
TAP	40	0	4
TAP	40	48	2
TAP	40	96	3
TAP	40	96	5
TAP	40	144	5
TAP	40	192	1
TAP	40	192	4
TAP	40	240	1
XTP	40	288	2
XTP	40	288	6
TTP	41	0	1	B	0	M1
TTP	41	0	1	E	0	M1
TTP	41	0	2	B	0	M1
TTP	41	0	3	E	0	M1
TTP	41	96	5	B	0	M1
TTP	41	96	5	E	0	M1
TTP	41	96	6	B	0	M1
TTP	41	96	7	E	0	M1
TTP	41	192	0	E	0	M1
TTP	41	192	0	C	0	M1
TTP	41	192	4	E	0	M1
STR	41	288	0
SI_	41	288	0	96	48	4
TAP	41	288	7
TAP	41	336	6
XTP	42	0	5
TAP	42	96	3
STR	42	96	5
SI_	42	96	5	96	48	0
TAP	42	144	2
XTP	42	192	1
TAP	42	288	0
TAP	42	288	7
TAP	42	336	1
TAP	43	0	2
TAP	43	0	3
TAP	43	48	4
TAP	43	96	5
TAP	43	96	6
TAP	43	144	7
XTP	43	192	1
XTP	43	192	5
TAP	43	288	0
STR	43	288	7
SI_	43	288	7	96	48	3
TAP	43	336	1
XTP	44	0	2
STR	44	96	2
SI_	44	96	2	96	48	7
TAP	44	96	4
TAP	44	144	5
XHO	44	192	6	96
STR	44	288	4
SCL	44	288	4	96	48	1
TAP	44	336	4
STR	45	0	7
SCL	45	0	7	96	48	4
TAP	45	48	7
TAP	45	96	0
TAP	45	144	0
XTP	45	192	2
XTP	45	192	6
STR	45	288	1
SI_	45	288	1	96	48	4
TAP	45	288	4
TAP	45	336	5
XTP	46	0	7
TAP	46	96	3
STR	46	96	6
SI_	46	96	6	96	48	3
TAP	46	144	2
XTP	46	192	0
TAP	46	288	0
TAP	46	288	7
TAP	46	336	6
TAP	47	0	4
TAP	47	0	5
TAP	47	48	3
TAP	47	96	1
TAP	47	96	2
TAP	47	144	0
XTP	47	192	2
XTP	47	192	6
XST	47	288	0
SI_	47	288	0	96	48	4
XST	47	288	4
SI_	47	288	4	96	48	6
XTP	47	336	0
XTP	47	336	4
XST	48	96	3
SI_	48	96	3	96	48	1
XST	48	96	7
SI_	48	96	7	96	48	3
XTP	48	144	3
XTP	48	144	7
TAP	48	288	4
TAP	48	336	5
XST	49	0	6
SCL	49	0	6	96	48	3
XST	49	0	7
SI_	49	0	7	96	48	3
XTP	49	96	6
XTP	49	96	7
TTP	49	192	0	B	0	M1
TTP	49	192	0	C	1	M1
TTP	49	192	7	B	0	M1
BRK	50	0	0
BRK	50	0	7
BRK	50	48	1
BRK	50	48	6
BST	50	96	2
SCL	50	96	2	96	48	0
BST	50	96	5
SCR	50	96	5	96	48	7
TAP	50	288	1
TAP	50	288	6
TAP	50	336	2
TAP	51	0	3
TAP	51	0	4
TAP	51	48	5
TAP	51	72	4
TAP	51	96	6
TAP	51	144	0
TAP	51	144	7
XTP	51	192	1
XTP	51	192	6
STR	51	288	3
SI_	51	288	3	96	48	7
TAP	51	288	7
TAP	51	336	6
XTP	52	0	4
TAP	52	96	0
STR	52	96	6
SI_	52	96	6	96	48	3
TAP	52	144	1
XHO	52	192	2	96
STR	52	288	1
SCL	52	288	1	96	48	6
TAP	52	336	1
STR	53	0	4
SCL	53	0	4	96	48	1
TAP	53	48	4
TAP	53	96	7
TAP	53	144	7
XTP	53	192	1
XTP	53	192	5
STR	53	288	2
SI_	53	288	2	96	48	7
TAP	53	288	7
TAP	53	336	5
XTP	54	0	3
TAP	54	96	0
STR	54	96	4
SI_	54	96	4	96	48	0
TAP	54	144	1
XTP	54	192	3
TAP	54	288	1
TAP	54	288	7
TAP	54	336	6
TAP	55	0	3
TAP	55	0	5
TAP	55	48	2
TAP	55	72	3
TAP	55	96	1
TAP	55	144	0
TAP	55	144	7
XTP	55	192	1
XTP	55	192	6
XST	55	288	0
SCR	55	288	0	96	48	2
XST	55	288	4
SI_	55	288	4	96	48	0
XTP	55	336	0
XTP	55	336	4
XST	56	96	3
SI_	56	96	3	96	48	7
XST	56	96	7
SCL	56	96	7	96	48	5
XTP	56	144	3
XTP	56	144	7
TAP	56	288	0
TAP	56	288	7
TAP	56	336	1
TAP	57	0	2
TAP	57	0	4
TAP	57	48	5
TAP	57	72	4
TAP	57	96	6
TAP	57	144	0
TAP	57	144	7
XTP	57	192	2
XTP	57	192	5
STR	57	288	1
SCR	57	288	1	96	48	3
TAP	57	288	7
TTP	57	336	0	C	0	M1
TTP	58	0	4	E	0	M1
TAP	58	96	0
STR	58	96	6
SCL	58	96	6	96	48	4
TTP	58	144	0	C	0	M1
TTP	58	192	4	E	0	M1
TAP	58	288	0
TAP	58	288	5
TAP	58	336	1
TAP	59	0	2
TAP	59	0	3
TAP	59	48	5
TAP	59	72	4
TAP	59	96	6
TAP	59	144	0
TAP	59	144	7
XTP	59	192	2
XTP	59	192	5
STR	59	288	6
SCL	59	288	6	96	48	4
TAP	59	288	7
TTP	59	336	0	C	0	M1
TTP	60	0	4	E	0	M1
TAP	60	96	0
STR	60	96	1
SCR	60	96	1	96	48	3
TTP	60	144	0	C	0	M1
TTP	60	192	4	E	0	M1
TAP	60	288	4
TAP	60	288	5
TAP	60	336	6
TAP	61	0	0
TAP	61	0	7
TAP	61	48	1
TAP	61	72	3
TAP	61	96	2
TAP	61	144	3
TAP	61	144	4
XTP	61	192	2
XTP	61	192	5
STR	61	288	1
SCR	61	288	1	96	48	4
TAP	61	288	5
TTP	61	336	0	C	0	M1
TTP	62	0	1	E	0	M1
TAP	62	96	2
STR	62	96	6
SCL	62	96	6	96	48	3
TTP	62	144	0	C	0	M1
TTP	62	192	7	E	0	M1
TAP	62	288	1
TAP	62	288	7
TAP	62	336	6
TAP	63	0	3
TAP	63	0	5
TAP	63	48	2
TAP	63	72	3
TAP	63	96	1
TAP	63	144	0
TAP	63	144	7
XTP	63	192	1
XTP	63	192	6
TAP	63	288	1
STR	63	288	5
SCR	63	288	5	96	48	0
TTP	63	336	0	C	0	M1
TTP	64	0	5	E	0	M1
STR	64	96	2
SCL	64	96	2	96	48	7
TAP	64	96	6
TTP	64	144	0	C	0	M1
TTP	64	192	3	E	0	M1
TAP	64	288	4
TAP	64	336	5
XST	65	0	0
SCR	65	0	0	96	48	3
XST	65	0	6
SCL	65	0	6	96	48	3
XTP	65	96	0
XTP	65	96	6
BRK	65	192	2
BRK	65	192	7
TTP	66	0	0	C	1	M1
TTP	66	0	1	B	0	M1
TTP	66	0	2	B	0	M1
TTP	66	0	3	B	0	M1
TTP	66	0	4	B	0	M1
TTP	66	0	4	E	0	M1
TTP	66	0	5	B	0	M1
TTP	66	0	6	B	0	M1
XTP	66	96	0
XTP	66	96	7
XTP	66	144	1
XTP	66	144	6
XTP	66	192	2
XHO	66	192	5	72
TAP	66	264	4
TAP	66	288	6
TAP	66	336	0
TAP	67	0	1
TAP	67	0	7
TAP	67	48	2
TAP	67	72	4
TAP	67	96	3
TAP	67	144	4
TAP	67	144	6
STR	67	192	0
SI_	67	192	0	96	48	4
TAP	67	192	7
TAP	67	288	5
TAP	67	336	6
STR	68	0	7
SCL	68	0	7	96	48	4
TAP	68	96	2
TAP	68	144	0
STR	68	192	7
SCR	68	192	7	96	48	2
TAP	68	288	4
TAP	68	336	6
TAP	69	0	3
TAP	69	0	7
TAP	69	48	6
TAP	69	72	4
TAP	69	96	5
TAP	69	144	3
TAP	69	144	4
XTP	69	192	2
XTP	69	192	5
XTP	69	288	1
XTP	69	288	7
XTP	69	336	2
XTP	69	336	6
XTP	70	0	3
XHO	70	0	5	72
TAP	70	72	4
TAP	70	96	6
TAP	70	144	1
TAP	70	144	7
HLD	70	192	2	72
TAP	70	264	3
TAP	70	288	1
TAP	70	336	7
TAP	71	0	0
TAP	71	0	6
TAP	71	48	5
TAP	71	72	3
TAP	71	96	4
TAP	71	144	2
TAP	71	144	3
TAP	71	192	1
STR	71	192	4
SI_	71	192	4	96	48	0
TAP	71	288	1
TAP	71	336	2
STR	72	0	3
SCL	72	0	3	96	48	0
TAP	72	96	6
TAP	72	144	4
STR	72	192	3
SCR	72	192	3	96	48	6
TAP	72	288	0
TAP	72	336	2
STR	73	0	3
SF_	73	0	3	96	48	7
BRK	73	192	1
BRK	73	192	5
TAP	73	336	2
TAP	73	360	3
XST	74	0	1
SI_	74	0	1	96	48	4
HLD	74	96	5	288
TTP	74	192	7	E	0	M1
TTP	74	288	5	E	0	M1
XHO	75	0	3	192
TTP	75	96	4	E	0	M1
TTP	75	192	0	E	0	M1
TTP	75	288	1	B	0	M1
TTP	75	288	2	E	0	M1
TTP	75	288	6	B	0	M1
TTP	75	288	6	E	0	M1
TAP	75	336	4
TAP	75	360	3
XST	76	0	4
SI_	76	0	4	96	48	0
HLD	76	96	2	288
TTP	76	192	1	E	0	M1
TTP	76	288	3	E	0	M1
XST	77	0	4
SCR	77	0	4	96	48	7
XST	77	96	0
SCR	77	96	0	96	48	3
XTP	77	192	7
TTP	77	288	0	E	0	M1
TTP	77	288	0	C	1	M1
TTP	77	288	4	E	0	M1
XHO	78	0	6	72
TAP	78	72	7
TAP	78	96	5
TAP	78	144	0
TAP	78	144	4
HLD	78	192	1	72
TAP	78	264	0
TAP	78	288	2
TAP	78	336	3
TAP	78	336	7
HLD	79	0	4	72
TAP	79	0	6
TAP	79	72	5
TAP	79	96	4
TAP	79	144	3
TAP	79	144	4
XST	79	192	2
SI_	79	192	2	96	48	0
XST	79	192	5
SI_	79	192	5	96	48	3
XHO	80	0	2	72
XHO	80	0	6	72
TAP	80	96	2
TAP	80	96	6
TAP	80	144	5
TAP	80	192	1
TAP	80	192	4
TAP	80	240	2
TAP	80	264	3
TAP	80	288	2
TAP	80	336	1
TAP	80	336	6
TTP	81	0	1	E	0	M1
TTP	81	24	7	E	0	M1
TTP	81	48	1	B	0	M1
TTP	81	72	6	B	0	M1
TTP	81	96	2	B	0	M1
TTP	81	120	5	B	0	M1
TTP	81	144	3	E	0	M1
TTP	81	168	5	E	0	M1
TTP	81	192	0	B	0	M1
TTP	81	192	0	C	1	M1
TTP	81	192	7	B	0	M1

T_REC_TAP	353
T_REC_BRK	9
T_REC_XTP	69
T_REC_HLD	33
T_REC_XHO	15
T_REC_STR	55
T_REC_BST	2
T_REC_XST	19
T_REC_TTP	97
T_REC_THO	1
T_REC_SLD	76
T_REC_ALL	729
T_NUM_TAP	593
T_NUM_BRK	11
T_NUM_HLD	49
T_NUM_SLD	76
T_NUM_ALL	729
T_JUDGE_TAP	604
T_JUDGE_HLD	128
T_JUDGE_SLD	76
T_JUDGE_ALL	808
TTM_EACHPAIRS	150
TTM_SCR_TAP	296500
TTM_SCR_BRK	28600
TTM_SCR_HLD	49000
TTM_SCR_SLD	114000
TTM_SCR_ALL	488100
TTM_SCR_S	472400
TTM_SCR_SS	487000
TTM_RAT_ACV	10022

