VERSION	0.00.00	1.03.00
FES_MODE	0
BPM_DEF	145.000	145.000	145.000	145.000
MET_DEF	4	4
RESOLUTION	384
CLK_DEF	384
COMPATIBLE_CODE	MA2

BPM	0	0	145.000
MET	0	0	4	4

STR	2	0	0
SI_	2	0	0	96	48	3
STR	2	192	7
SI_	2	192	7	96	48	4
TAP	3	0	0
TAP	3	96	1
TAP	3	96	7
TAP	3	192	2
TAP	3	192	6
STR	4	0	7
SI_	4	0	7	96	48	4
STR	4	192	0
SI_	4	192	0	96	48	3
TAP	5	0	7
TAP	5	96	0
TAP	5	96	6
TAP	5	192	1
TAP	5	192	5
STR	6	0	0
SCR	6	0	0	96	48	3
STR	6	192	7
SCL	6	192	7	96	48	4
TAP	7	0	0
TAP	7	96	1
TAP	7	96	7
TAP	7	192	2
TAP	7	192	6
STR	8	0	7
SCL	8	0	7	96	48	4
STR	8	192	0
SCR	8	192	0	96	48	3
BRK	9	0	7
TAP	9	192	0
TAP	9	192	7
TAP	9	288	3
TAP	9	288	4
TAP	10	0	2
TAP	10	48	2
TAP	10	96	3
TAP	10	192	5
TAP	10	240	5
TAP	10	288	4
TAP	11	0	2
TAP	11	0	3
TAP	11	96	0
TAP	11	96	1
TAP	11	192	6
TAP	11	192	7
TAP	11	288	4
TAP	11	288	5
TAP	12	0	5
TAP	12	48	5
TAP	12	96	4
TAP	12	192	2
TAP	12	240	2
TAP	12	288	3
TAP	13	0	4
TAP	13	0	5
TAP	13	96	6
TAP	13	96	7
TAP	13	192	0
TAP	13	192	1
TAP	13	288	2
TAP	13	288	3
TAP	14	0	2
TAP	14	48	2
TAP	14	96	3
TAP	14	192	5
TAP	14	240	5
TAP	14	288	4
TAP	15	0	1
TAP	15	0	3
TAP	15	96	0
TAP	15	96	7
TAP	15	192	4
TAP	15	192	6
TAP	15	288	3
TAP	15	288	4
TAP	16	0	5
TAP	16	48	5
TAP	16	96	4
TAP	16	192	2
TAP	16	240	2
TAP	16	288	3
TAP	17	0	4
TAP	17	0	6
TAP	17	96	0
TAP	17	96	7
TAP	17	192	1
TAP	17	192	3
TAP	17	288	3
TAP	17	288	4
HLD	18	0	5	768
TAP	18	96	4
TAP	18	192	4
TAP	18	288	4
TAP	19	0	6
TAP	19	96	7
TAP	19	192	0
TAP	19	288	1
HLD	20	0	2	768
TAP	20	96	3
TAP	20	192	3
TAP	20	288	3
TAP	21	0	1
TAP	21	96	0
TAP	21	192	7
TAP	21	288	6
HLD	22	0	5	192
TAP	22	96	4
HLD	22	192	2	192
TAP	22	288	3
TAP	23	0	5
TAP	23	96	3
TAP	23	96	4
TAP	23	192	1
TAP	23	192	6
TAP	24	0	0
TAP	24	0	7
TAP	24	96	1
TAP	24	96	6
TAP	24	192	2
TAP	24	192	5
STR	24	288	3
SCL	24	288	3	96	192	4
TAP	24	288	4
TAP	25	288	3
TAP	25	288	4
HLD	26	0	5	192
TAP	26	96	4
HLD	26	192	2	192
TAP	26	288	3
HLD	27	0	6	192
TAP	27	96	4
HLD	27	192	1	192
TAP	27	288	3
HLD	28	0	7	192
TAP	28	96	5
HLD	28	192	0	192
TAP	28	288	2
HLD	29	0	7	192
TAP	29	96	4
TAP	29	192	0
TAP	29	288	3
TAP	29	288	4
HLD	30	0	1	96
HLD	30	96	0	96
HLD	30	192	7	96
HLD	30	288	6	96
HLD	31	0	5	96
HLD	31	96	4	96
TAP	31	192	3
TAP	31	288	2
TAP	31	288	5
STR	32	0	1
SI_	32	0	1	96	48	4
STR	32	192	5
SI_	32	192	5	96	48	0
HLD	33	0	1	96
HLD	33	96	2	96
HLD	33	192	3	96
TAP	33	288	4
THO	34	0	0	192	C	0	M1
TAP	35	0	0
TAP	35	96	1
TAP	35	96	3
TAP	35	192	7
TAP	35	288	4
TAP	35	288	6
THO	36	0	0	192	C	0	M1
TTP	36	0	2	B	0	M1
TTP	36	0	5	B	0	M1
TAP	37	0	7
TAP	37	96	3
TAP	37	96	6
TAP	37	192	0
TAP	37	288	1
TAP	37	288	4
THO	38	0	0	192	C	0	M1
TTP	38	0	1	B	0	M1
TTP	38	0	2	B	0	M1
TTP	38	0	5	B	0	M1
TTP	38	0	6	B	0	M1
TAP	39	0	0
TAP	39	96	1
TAP	39	96	5
TAP	39	192	7
TAP	39	288	2
TAP	39	288	6
HLD	40	0	5	96
HLD	40	96	7	96
HLD	40	192	0	96
HLD	40	288	2	96
TAP	41	0	5
TAP	41	96	0
TAP	41	96	7
BRK	41	192	1
BRK	41	192	6
STR	41	288	0
SI_	41	288	0	96	48	4
STR	41	288	7
SI_	41	288	7	96	48	5
STR	42	96	0
SI_	42	96	0	96	48	2
STR	42	96	7
SI_	42	96	7	96	48	3
TAP	42	288	0
TAP	42	336	0
TAP	43	0	7
TTP	43	96	1	B	0	M1
TTP	43	96	2	B	0	M1
TTP	43	96	3	E	0	M1
TTP	43	192	5	E	0	M1
TTP	43	192	5	B	0	M1
TTP	43	192	6	B	0	M1
STR	43	288	0
SI_	43	288	0	96	48	2
STR	43	288	7
SI_	43	288	7	96	48	3
STR	44	96	0
SI_	44	96	0	96	48	4
STR	44	96	7
SI_	44	96	7	96	48	5
TAP	44	288	7
TAP	44	336	7
TAP	45	0	0
TTP	45	96	4	B	0	M1
TTP	45	96	5	B	0	M1
TTP	45	96	6	E	0	M1
TTP	45	192	2	E	0	M1
TTP	45	192	2	B	0	M1
TTP	45	192	3	B	0	M1
STR	45	288	6
SI_	45	288	6	96	48	4
STR	45	288	7
SI_	45	288	7	96	48	3
STR	46	96	0
SI_	46	96	0	96	48	4
STR	46	96	1
SI_	46	96	1	96	48	3
TAP	46	288	7
TAP	46	336	7
TAP	47	0	0
TTP	47	96	2	B	0	M1
TTP	47	96	2	E	0	M1
TTP	47	96	3	B	0	M1
TTP	47	192	4	B	0	M1
TTP	47	192	5	B	0	M1
TTP	47	192	6	E	0	M1
STR	47	288	0
SI_	47	288	0	96	48	4
STR	47	288	1
SI_	47	288	1	96	48	3
STR	48	96	6
SI_	48	96	6	96	48	4
STR	48	96	7
SI_	48	96	7	96	48	3
TAP	48	288	0
TAP	48	336	0
TAP	49	0	7
TAP	49	96	3
TAP	49	96	4
TTP	49	192	0	C	1	M1
TTP	49	192	1	B	0	M1
TTP	49	192	2	B	0	M1
TTP	49	192	5	B	0	M1
TTP	49	192	6	B	0	M1
TAP	50	0	0
TAP	50	0	7
TAP	50	96	3
TAP	50	96	4
BRK	50	192	1
BRK	50	192	6
TAP	50	288	0
TAP	50	336	0
STR	51	0	7
SI_	51	0	7	96	48	4
STR	51	96	0
SI_	51	96	0	96	48	3
TAP	51	192	7
STR	51	288	4
SI_	51	288	4	96	48	1
TAP	51	288	5
TAP	52	96	2
STR	52	96	3
SI_	52	96	3	96	48	6
TAP	52	288	7
TAP	52	336	7
STR	53	0	0
SI_	53	0	0	96	48	3
TAP	53	96	7
TAP	53	192	1
TAP	53	192	6
TAP	53	288	2
STR	53	288	3
SI_	53	288	3	96	48	6
STR	54	96	4
SI_	54	96	4	96	48	1
TAP	54	96	5
TAP	54	288	7
TAP	54	336	7
STR	55	0	0
SCR	55	0	0	96	48	3
STR	55	96	7
SCL	55	96	7	96	48	4
TAP	55	192	0
TAP	55	288	2
STR	55	288	3
SI_	55	288	3	96	48	7
STR	56	96	4
SI_	56	96	4	96	48	0
TAP	56	96	5
TAP	56	288	2
STR	56	288	3
SI_	56	288	3	96	48	7
TAP	57	96	0
BRK	57	192	1
BRK	57	192	6
STR	57	288	2
SI_	57	288	2	96	48	0
STR	57	288	7
SI_	57	288	7	96	48	3
STR	58	96	0
SI_	58	96	0	96	48	4
STR	58	96	5
SI_	58	96	5	96	48	7
TAP	58	288	7
TAP	58	336	7
TAP	59	0	0
TTP	59	96	3	B	0	M1
TTP	59	96	4	B	0	M1
TTP	59	96	5	E	0	M1
TTP	59	192	1	B	0	M1
TTP	59	192	2	B	0	M1
TTP	59	192	3	E	0	M1
STR	59	288	0
SI_	59	288	0	96	48	4
STR	59	288	5
SI_	59	288	5	96	48	7
STR	60	96	2
SI_	60	96	2	96	48	0
STR	60	96	7
SI_	60	96	7	96	48	3
TAP	60	288	0
TAP	60	336	0
TAP	61	0	7
TTP	61	96	2	B	0	M1
TTP	61	96	2	E	0	M1
TTP	61	96	3	B	0	M1
TTP	61	192	4	B	0	M1
TTP	61	192	5	B	0	M1
TTP	61	192	6	E	0	M1
STR	61	288	1
SI_	61	288	1	96	48	7
STR	61	288	6
SI_	61	288	6	96	48	2
STR	62	96	0
SI_	62	96	0	96	48	4
STR	62	96	5
SI_	62	96	5	96	48	7
TAP	62	288	7
TAP	62	336	7
TAP	63	0	0
TTP	63	96	4	B	0	M1
TTP	63	96	5	B	0	M1
TTP	63	96	6	E	0	M1
TTP	63	192	2	E	0	M1
TTP	63	192	2	B	0	M1
TTP	63	192	3	B	0	M1
STR	63	288	1
SI_	63	288	1	96	48	5
STR	63	288	6
SI_	63	288	6	96	48	0
STR	64	96	2
SI_	64	96	2	96	48	0
STR	64	96	7
SI_	64	96	7	96	48	3
TAP	64	288	0
TAP	64	336	0
TAP	65	0	7
TAP	65	96	3
TAP	65	96	4
TTP	65	192	0	C	1	M1
TTP	65	192	1	B	0	M1
TTP	65	192	2	B	0	M1
TTP	65	192	5	B	0	M1
TTP	65	192	6	B	0	M1
TAP	66	0	0
TAP	66	0	7
TAP	66	48	0
TAP	66	48	7
TAP	66	96	0
TAP	66	96	7
BRK	66	192	2
BRK	66	192	5
TAP	66	288	7
TAP	66	336	7
STR	67	0	0
SCR	67	0	0	96	48	3
STR	67	96	5
SI_	67	96	5	96	48	2
TAP	67	192	0
TAP	67	288	1
STR	67	288	3
SI_	67	288	3	96	48	6
STR	68	96	4
SI_	68	96	4	96	48	1
TAP	68	96	6
TAP	68	288	0
TAP	68	336	0
STR	69	0	7
SI_	69	0	7	96	48	4
STR	69	96	0
SI_	69	96	0	96	48	3
TAP	69	192	7
STR	69	288	4
SI_	69	288	4	96	48	1
TAP	69	288	5
TAP	70	96	2
STR	70	96	3
SI_	70	96	3	96	48	6
TAP	70	288	0
TAP	70	336	0
STR	71	0	7
SCL	71	0	7	96	48	4
STR	71	96	2
SI_	71	96	2	96	48	5
TAP	71	192	7
STR	71	288	4
SI_	71	288	4	96	48	0
TAP	71	288	6
TAP	72	96	1
STR	72	96	3
SI_	72	96	3	96	48	7
STR	72	288	4
SI_	72	288	4	96	48	0
TAP	72	288	6
TAP	73	96	7
BRK	73	192	2
BRK	73	192	5
TAP	74	0	4
TAP	74	0	6
TAP	74	96	3
TAP	74	144	3
TAP	74	192	4
TAP	74	288	2
TAP	75	0	1
HLD	75	0	3	96
HLD	75	96	4	96
HLD	75	192	6	96
TAP	75	288	3
TAP	76	0	1
TAP	76	0	4
TAP	76	96	7
TAP	76	144	7
TAP	76	192	0
TAP	76	288	5
TAP	77	0	3
TAP	77	0	6
TAP	77	96	0
TAP	77	144	0
TAP	77	192	1
TAP	77	192	6
TAP	77	288	3
TAP	77	288	4
HLD	78	0	5	96
TAP	78	96	4
TAP	78	144	4
HLD	78	192	7	96
TAP	78	288	0
TAP	78	336	7
HLD	79	0	2	96
TAP	79	96	3
TAP	79	144	3
HLD	79	192	0	96
TAP	79	288	7
TAP	79	336	0
TAP	80	0	5
TAP	80	48	5
TAP	80	96	4
TAP	80	192	2
TAP	80	240	2
TAP	80	288	3
TTP	81	0	3	E	0	M1
TTP	81	0	5	E	0	M1
TTP	81	96	0	B	0	M1
TTP	81	96	7	B	0	M1
TTP	81	192	0	C	1	M1
TTP	81	192	1	B	0	M1
TTP	81	192	2	B	0	M1
TTP	81	192	5	B	0	M1
TTP	81	192	6	B	0	M1

T_REC_TAP	250
T_REC_BRK	11
T_REC_XTP	0
T_REC_HLD	31
T_REC_XHO	0
T_REC_STR	68
T_REC_BST	0
T_REC_XST	0
T_REC_TTP	61
T_REC_THO	3
T_REC_SLD	68
T_REC_ALL	492
T_NUM_TAP	379
T_NUM_BRK	11
T_NUM_HLD	34
T_NUM_SLD	68
T_NUM_ALL	492
T_JUDGE_TAP	390
T_JUDGE_HLD	120
T_JUDGE_SLD	68
T_JUDGE_ALL	578
TTM_EACHPAIRS	89
TTM_SCR_TAP	189500
TTM_SCR_BRK	28600
TTM_SCR_HLD	34000
TTM_SCR_SLD	102000
TTM_SCR_ALL	354100
TTM_SCR_S	342450
TTM_SCR_SS	353000
TTM_RAT_ACV	10031

