VERSION	0.00.00	1.03.00
FES_MODE	0
BPM_DEF	145.000	145.000	145.000	145.000
MET_DEF	4	4
RESOLUTION	384
CLK_DEF	384
COMPATIBLE_CODE	MA2

BPM	0	0	145.000
MET	0	0	4	4

HLD	2	0	0	192
HLD	2	192	1	192
HLD	3	0	2	192
TAP	3	192	3
HLD	4	0	4	192
HLD	4	192	5	192
HLD	5	0	6	192
TAP	5	192	7
TAP	6	0	1
TAP	6	96	0
TAP	6	96	1
TAP	6	192	1
TAP	6	288	0
TAP	6	288	1
TAP	7	0	6
TAP	7	96	6
TAP	7	96	7
XTP	7	192	0
XTP	7	192	5
TAP	8	0	6
TAP	8	96	6
TAP	8	96	7
TAP	8	192	6
TAP	8	288	6
TAP	8	288	7
TAP	9	0	0
TAP	9	96	0
TAP	9	96	7
BRK	9	192	1
BRK	9	192	6
TAP	10	0	0
TAP	10	96	1
TAP	10	192	2
TAP	10	192	3
TAP	11	0	4
TAP	11	96	5
TAP	11	192	6
TAP	11	192	7
TAP	12	0	7
TAP	12	96	6
TAP	12	192	5
TAP	12	288	4
TAP	13	0	3
TAP	13	96	2
XTP	13	192	0
XTP	13	192	1
TAP	14	0	7
TAP	14	96	6
TAP	14	192	4
TAP	14	192	5
TAP	15	0	3
TAP	15	96	2
TAP	15	192	0
TAP	15	192	1
TAP	16	0	2
TAP	16	96	3
TAP	16	192	4
TAP	16	288	5
TAP	17	0	6
XTP	17	96	0
XTP	17	96	7
BRK	17	192	1
BRK	17	192	6
HLD	18	0	5	288
TAP	18	288	4
HLD	19	0	3	288
TAP	19	288	4
HLD	20	0	5	288
TAP	20	288	4
TAP	21	0	3
TAP	21	96	2
XTP	21	192	2
XTP	21	192	3
HLD	22	0	2	288
TAP	22	288	3
HLD	23	0	4	288
TAP	23	288	3
HLD	24	0	2	288
TAP	24	288	3
TAP	25	0	4
TAP	25	96	5
XTP	25	192	4
XTP	25	192	6
TAP	26	0	5
TAP	26	96	5
TAP	26	192	4
TAP	26	192	5
TAP	27	0	3
TAP	27	96	3
TAP	27	192	3
TAP	27	192	4
TAP	28	0	5
TAP	28	96	5
TAP	28	192	5
TAP	28	288	4
TAP	29	0	3
TAP	29	96	2
XTP	29	192	1
XTP	29	192	3
TAP	30	0	2
TAP	30	96	2
TAP	30	192	2
TAP	30	192	3
TAP	31	0	4
TAP	31	96	4
TAP	31	192	3
TAP	31	192	4
TAP	32	0	2
TAP	32	96	2
TAP	32	192	2
TAP	32	288	1
TAP	33	0	0
TAP	33	96	7
XTP	33	192	1
XTP	33	192	6
STR	34	0	7
SI_	34	0	7	96	144	4
TAP	35	0	3
TAP	35	96	3
XTP	35	192	3
STR	36	0	3
SI_	36	0	3	96	144	0
TAP	37	0	7
TAP	37	96	7
XTP	37	192	7
STR	38	0	6
SI_	38	0	6	96	144	3
TAP	39	0	2
TAP	39	96	2
XTP	39	192	2
TAP	40	0	1
TAP	40	96	1
TAP	40	192	0
TAP	40	288	0
TAP	41	0	0
TAP	41	0	7
TAP	41	96	0
TAP	41	96	7
BRK	41	192	1
BRK	41	192	6
TAP	42	0	7
TAP	42	96	6
TAP	42	192	5
TAP	42	288	4
TAP	43	0	3
TAP	43	96	2
TAP	43	192	0
TAP	43	192	1
HLD	44	0	2	96
TAP	44	96	3
HLD	44	192	4	96
TAP	44	288	3
TAP	45	0	2
TAP	45	96	0
TAP	45	96	1
XTP	45	192	2
XTP	45	192	7
TAP	46	0	0
TAP	46	96	1
TAP	46	192	2
TAP	46	288	3
TAP	47	0	4
TAP	47	96	5
TAP	47	192	6
TAP	47	192	7
HLD	48	0	5	96
TAP	48	96	4
HLD	48	192	3	96
TAP	48	288	4
STR	49	0	3
SI_	49	0	3	96	144	0
STR	49	0	4
SI_	49	0	4	96	144	7
TAP	50	0	0
TAP	50	96	1
TAP	50	192	2
TAP	50	288	3
TAP	51	0	4
TAP	51	96	5
TAP	51	192	6
TAP	51	192	7
HLD	52	0	5	96
TAP	52	96	4
HLD	52	192	3	96
TAP	52	288	4
TAP	53	0	5
TAP	53	96	6
TAP	53	96	7
XTP	53	192	0
XTP	53	192	5
TAP	54	0	7
TAP	54	96	6
TAP	54	192	5
TAP	54	288	4
TAP	55	0	3
TAP	55	96	2
TAP	55	192	0
TAP	55	192	1
HLD	56	0	2	96
TAP	56	96	3
HLD	56	192	4	96
TAP	56	288	3
TAP	57	0	3
TAP	57	0	4
HLD	57	96	2	96
HLD	57	96	5	96
TAP	58	0	1
TAP	58	96	0
TAP	58	96	1
TAP	58	192	6
TAP	58	288	6
TAP	58	288	7
TAP	59	0	5
TAP	59	96	4
TAP	59	96	5
XTP	59	192	3
XTP	59	192	6
HLD	60	0	5	96
TAP	60	96	4
HLD	60	192	2	96
TAP	60	288	3
STR	61	0	3
SCL	61	0	3	96	144	0
STR	61	0	4
SCR	61	0	4	96	144	7
TAP	62	0	6
TAP	62	96	6
TAP	62	96	7
TAP	62	192	1
TAP	62	288	0
TAP	62	288	1
TAP	63	0	2
TAP	63	96	2
TAP	63	96	3
XTP	63	192	1
XTP	63	192	4
HLD	64	0	2	96
TAP	64	96	3
HLD	64	192	5	96
TAP	64	288	4
TAP	65	0	3
TAP	65	0	4
TAP	65	96	2
TAP	65	96	5
BRK	65	192	1
BRK	65	192	6
TAP	66	0	7
TAP	66	96	6
TAP	66	192	4
TAP	66	192	5
TAP	66	288	3
TAP	67	0	4
TAP	67	0	5
TAP	67	96	3
TAP	67	96	6
XTP	67	192	2
XTP	67	192	7
STR	68	0	0
SCR	68	0	0	96	144	3
STR	69	0	4
SCR	69	0	4	96	144	7
TAP	70	0	0
TAP	70	96	1
TAP	70	192	2
TAP	70	192	3
TAP	70	288	4
TAP	71	0	2
TAP	71	0	3
TAP	71	96	1
TAP	71	96	4
XTP	71	192	0
XTP	71	192	5
STR	72	0	6
SCL	72	0	6	96	144	3
STR	73	0	2
SCL	73	0	2	96	144	7
TTP	74	0	6	B	0	L1
TTP	74	192	4	B	0	L1
TTP	75	0	2	B	0	L1
TTP	76	0	1	B	0	L1
TTP	76	192	3	B	0	L1
TTP	77	0	5	B	0	L1
TTP	78	0	6	B	0	L1
TTP	78	192	0	C	0	L1
TTP	79	0	2	B	0	L1
TTP	79	192	1	B	0	L1
TTP	80	0	0	C	0	L1
TTP	80	192	5	B	0	L1
THO	81	0	0	192	C	1	L1

T_REC_TAP	191
T_REC_BRK	8
T_REC_XTP	29
T_REC_HLD	26
T_REC_XHO	0
T_REC_STR	11
T_REC_BST	0
T_REC_XST	0
T_REC_TTP	12
T_REC_THO	1
T_REC_SLD	11
T_REC_ALL	289
T_NUM_TAP	243
T_NUM_BRK	8
T_NUM_HLD	27
T_NUM_SLD	11
T_NUM_ALL	289
T_JUDGE_TAP	251
T_JUDGE_HLD	92
T_JUDGE_SLD	11
T_JUDGE_ALL	354
TTM_EACHPAIRS	57
TTM_SCR_TAP	121500
TTM_SCR_BRK	20800
TTM_SCR_HLD	27000
TTM_SCR_SLD	16500
TTM_SCR_ALL	185800
TTM_SCR_S	179450
TTM_SCR_SS	185000
TTM_RAT_ACV	10043

