VERSION	0.00.00	1.03.00
FES_MODE	0
BPM_DEF	145.000	145.000	145.000	145.000
MET_DEF	4	4
RESOLUTION	384
CLK_DEF	384
COMPATIBLE_CODE	MA2

BPM	0	0	145.000
MET	0	0	4	4

TAP	10	0	0
TAP	11	0	0
TAP	12	0	1
TAP	13	0	1
TAP	14	0	2
TAP	15	0	2
TAP	16	0	3
XTP	17	0	3
XTP	17	0	4
HLD	18	0	4	192
TAP	19	0	4
HLD	20	0	5	192
TAP	21	0	5
TAP	22	0	6
TAP	22	192	6
TAP	23	0	7
TAP	23	192	7
TAP	24	0	0
TAP	24	192	0
XTP	25	0	0
XTP	25	0	7
TAP	26	0	7
TAP	26	192	7
TAP	27	0	7
TAP	28	0	6
TAP	28	192	6
TAP	29	0	6
TAP	30	0	5
TAP	30	192	5
TAP	31	0	4
TAP	31	192	4
TAP	32	0	3
TAP	32	192	3
XTP	33	0	3
XTP	33	0	4
TTP	34	0	2	B	0	L1
TTP	35	0	1	B	0	L1
TTP	36	0	0	B	0	L1
TTP	37	0	7	B	0	L1
TTP	38	0	6	B	0	L1
TTP	39	0	5	B	0	L1
THO	40	0	0	384	C	1	L1
TAP	42	0	0
TAP	42	96	0
TAP	42	192	0
TAP	43	0	1
TAP	43	96	1
TAP	43	192	1
TAP	44	0	2
TAP	44	96	2
TAP	44	192	2
TAP	45	0	3
TAP	45	96	3
TAP	45	192	3
TAP	45	192	4
TAP	46	0	4
TAP	46	96	4
TAP	46	192	4
TAP	47	0	5
TAP	47	96	5
TAP	47	192	5
TAP	48	0	6
TAP	48	96	6
TAP	48	192	6
XTP	49	0	0
XTP	49	0	7
XTP	49	96	0
XTP	49	96	7
BRK	49	192	0
BRK	49	192	7
TAP	50	0	7
TAP	50	96	7
TAP	50	192	7
TAP	51	0	6
TAP	51	96	6
TAP	51	192	6
TAP	52	0	5
TAP	52	96	5
TAP	52	192	5
TAP	53	0	4
TAP	53	96	4
XTP	53	192	3
XTP	53	192	4
TAP	54	0	3
TAP	54	96	3
TAP	54	192	3
TAP	55	0	2
TAP	55	96	2
TAP	55	192	2
TAP	56	0	1
TAP	56	96	1
TAP	56	192	1
XTP	57	0	0
XTP	57	0	7
XTP	57	96	0
XTP	57	96	7
XTP	57	192	0
XTP	57	192	7
TAP	58	0	1
TAP	58	96	1
TAP	58	192	2
TAP	58	288	2
TAP	59	0	3
TAP	59	96	3
TAP	59	192	3
TAP	59	192	4
TAP	60	0	5
TAP	60	96	5
TAP	60	192	6
TAP	60	288	6
TAP	61	0	7
TAP	61	96	7
TAP	61	192	0
TAP	61	192	7
TAP	62	0	6
TAP	62	96	6
TAP	62	192	5
TAP	62	288	5
TAP	63	0	4
TAP	63	96	4
TAP	63	192	3
TAP	63	192	4
TAP	64	0	2
TAP	64	96	2
TAP	64	192	1
TAP	64	288	1
XTP	65	0	0
XTP	65	0	7
XTP	65	96	0
XTP	65	96	7
BRK	65	192	0
BRK	65	192	7
TAP	66	0	0
TAP	66	192	0
TAP	67	0	0
TAP	67	96	7
TAP	67	192	0
STR	68	0	0
SI_	68	0	0	96	288	4
TAP	70	0	7
TAP	70	192	7
TAP	71	0	7
TAP	71	96	0
TAP	71	192	7
STR	72	0	7
SI_	72	0	7	96	288	3
HLD	74	0	2	192
HLD	75	0	1	192
HLD	76	0	0	192
HLD	77	0	7	192
TAP	78	0	6
TAP	78	192	6
TAP	79	0	5
TAP	79	192	5
TAP	80	0	3
TAP	80	0	4
TAP	80	192	3
TAP	80	192	4
XTP	81	0	3
XTP	81	96	4
BRK	81	192	3

T_REC_TAP	115
T_REC_BRK	5
T_REC_XTP	24
T_REC_HLD	6
T_REC_XHO	0
T_REC_STR	2
T_REC_BST	0
T_REC_XST	0
T_REC_TTP	6
T_REC_THO	1
T_REC_SLD	2
T_REC_ALL	161
T_NUM_TAP	147
T_NUM_BRK	5
T_NUM_HLD	7
T_NUM_SLD	2
T_NUM_ALL	161
T_JUDGE_TAP	152
T_JUDGE_HLD	32
T_JUDGE_SLD	2
T_JUDGE_ALL	186
TTM_EACHPAIRS	19
TTM_SCR_TAP	73500
TTM_SCR_BRK	13000
TTM_SCR_HLD	7000
TTM_SCR_SLD	3000
TTM_SCR_ALL	96500
TTM_SCR_S	93150
TTM_SCR_SS	96000
TTM_RAT_ACV	10052

