VERSION	0.00.00	1.03.00
FES_MODE	0
BPM_DEF	 95.500	191.000	191.000	 61.000
MET_DEF	4	4
RESOLUTION	384
CLK_DEF	384
COMPATIBLE_CODE	MA2

BPM	0	0	 95.500
BPM	8	96	 87.000
BPM	8	288	 78.000
BPM	9	96	 69.000
BPM	9	288	 61.000
BPM	10	0	 63.000
BPM	10	96	191.000
MET	0	0	4	4
CLK	0	0
CLK	0	96
CLK	0	192
CLK	0	288

TAP	1	288	4
TAP	1	312	3
TAP	1	336	2
TAP	1	360	1
HLD	2	0	0	384
STR	2	0	4
SXR	2	0	4	96	192	7
HLD	3	0	7	384
TAP	3	48	0
TAP	3	72	1
TAP	3	96	2
TAP	3	128	2
TAP	3	160	2
TAP	3	192	3
TAP	3	240	4
TAP	3	288	5
TAP	3	336	6
HLD	4	0	0	72
HLD	4	72	4	72
STR	4	144	3
SUR	4	144	3	96	144	4
HLD	5	0	6	192
XTP	5	192	1
TAP	5	240	0
TAP	5	240	7
TAP	5	288	6
TAP	5	312	1
TAP	5	336	5
TAP	5	360	2
HLD	6	0	3	336
HLD	6	0	4	144
HLD	6	192	5	240
HLD	7	0	7	144
HLD	7	96	0	144
HLD	7	192	2	240
TAP	7	288	3
TAP	7	312	4
TAP	7	336	5
TAP	7	360	6
HLD	8	0	7	48
HLD	8	96	3	48
HLD	8	96	4	48
HLD	8	192	0	48
HLD	8	192	5	48
TAP	8	288	7
TAP	8	320	0
TAP	8	352	7
STR	9	0	0
SCR	9	0	0	96	60	3
STR	9	0	7
SCL	9	0	7	96	60	4
HLD	9	192	2	252
HLD	9	192	5	252
TTP	10	96	0	B	0	M1
TTP	10	96	1	B	0	M1
TTP	10	96	6	B	0	M1
TTP	10	96	7	B	0	M1
STR	10	192	3
SI_	10	192	3	96	40	0
STR	10	192	4
SI_	10	192	4	96	40	7
XTP	10	288	3
XTP	10	288	4
TAP	11	0	1
TAP	11	0	6
TAP	11	96	1
TAP	11	96	7
STR	11	144	1
SI_	11	144	1	96	36	5
TAP	11	144	7
STR	11	240	7
SI_	11	240	7	96	36	3
STR	11	336	0
SI_	11	336	0	96	36	4
STR	12	48	6
SI_	12	48	6	96	36	2
STR	12	144	7
SI_	12	144	7	96	36	3
TAP	12	240	4
TAP	12	288	5
TAP	12	336	6
TAP	13	0	3
TAP	13	0	7
TAP	13	96	0
TAP	13	96	6
TAP	13	144	0
STR	13	144	6
SI_	13	144	6	96	36	2
STR	13	240	0
SI_	13	240	0	96	36	4
STR	13	336	7
SI_	13	336	7	96	36	3
STR	14	48	1
SI_	14	48	1	96	36	5
STR	14	144	0
SI_	14	144	0	96	36	4
TAP	14	240	3
HLD	14	336	2	384
TTP	15	96	3	B	0	M1
TTP	15	96	4	B	0	M1
TAP	15	192	0
TAP	15	240	7
TAP	15	288	6
HLD	15	336	5	96
HLD	16	48	0	96
TAP	16	144	7
TAP	16	240	2
TAP	16	240	5
TAP	16	288	2
TAP	16	288	5
TTP	17	0	0	B	0	M1
TTP	17	0	1	E	0	M1
TTP	17	0	1	B	0	M1
TTP	17	0	2	E	0	M1
TAP	17	96	3
TAP	17	96	4
TTP	17	144	6	E	0	M1
TTP	17	144	6	B	0	M1
TTP	17	144	7	E	0	M1
TTP	17	144	7	B	0	M1
TAP	17	240	3
TAP	17	240	4
TTP	17	336	0	B	0	M1
TTP	17	336	0	C	1	M1
TTP	17	336	1	B	0	M1
TTP	17	336	6	B	0	M1
TTP	17	336	7	B	0	M1
TAP	18	192	3
TAP	18	192	4
TAP	18	240	3
TAP	18	264	5
TAP	18	288	2
TAP	18	312	6
TAP	18	336	1
TAP	18	360	7
XTP	19	0	0
TAP	19	96	0
TAP	19	96	6
TAP	19	144	0
STR	19	144	6
SI_	19	144	6	96	36	2
STR	19	240	0
SI_	19	240	0	96	36	4
STR	19	336	7
SI_	19	336	7	96	36	3
STR	20	48	1
SI_	20	48	1	96	36	5
STR	20	144	0
SI_	20	144	0	96	36	4
TAP	20	240	3
TAP	20	288	2
TAP	20	336	1
TAP	21	0	0
TAP	21	0	4
TAP	21	96	1
TAP	21	96	7
STR	21	144	1
SI_	21	144	1	96	36	5
TAP	21	144	7
STR	21	240	7
SI_	21	240	7	96	36	3
STR	21	336	0
SI_	21	336	0	96	36	4
STR	22	48	6
SI_	22	48	6	96	36	2
STR	22	144	7
SI_	22	144	7	96	36	3
TAP	22	240	4
TAP	22	336	6
TAP	22	360	5
HLD	23	0	4	192
TTP	23	96	2	B	0	M1
TTP	23	96	3	B	0	M1
TAP	23	192	0
TAP	23	240	1
TAP	23	288	2
HLD	23	336	3	240
TTP	24	96	4	B	0	M1
TTP	24	96	5	B	0	M1
TAP	24	192	7
TAP	24	240	6
TAP	24	288	5
HLD	24	336	4	288
TAP	25	48	0
TAP	25	96	0
TAP	25	144	0
TAP	25	192	0
TAP	25	240	0
TAP	25	288	0
TAP	25	312	7
TAP	25	336	0
TAP	25	360	7
TAP	26	0	0
TAP	26	24	1
TAP	26	48	2
TAP	26	72	3
TAP	26	96	0
TAP	26	120	7
TAP	26	144	6
TAP	26	168	5
STR	26	192	0
SI_	26	192	0	96	36	5
TAP	26	216	1
TAP	26	240	2
TAP	26	264	3
XTP	26	288	0
TAP	26	288	4
TAP	27	0	1
TAP	27	0	6
TTP	27	96	0	C	1	M1
TTP	27	96	2	B	0	M1
TTP	27	96	5	B	0	M1
TAP	27	192	6
TAP	27	240	7
TAP	27	288	0
HLD	27	336	1	96
HLD	28	48	3	96
HLD	28	144	5	144
TAP	28	240	7
TAP	28	288	7
TAP	29	0	1
TAP	29	0	6
TTP	29	96	0	B	0	M1
TTP	29	96	0	C	0	M1
TTP	29	96	7	B	0	M1
TAP	29	192	5
TAP	29	240	4
TAP	29	288	3
HLD	29	336	2	144
TAP	30	48	5
TAP	30	96	5
TAP	30	192	1
TAP	30	216	7
TAP	30	240	1
TAP	30	264	7
TAP	30	288	0
TAP	30	312	6
TAP	30	336	0
TAP	30	360	6
STR	31	0	0
SI_	31	0	0	96	36	4
BRK	31	96	0
BRK	31	96	7
TAP	31	192	6
TAP	31	240	6
TAP	31	288	2
TAP	31	336	2
TAP	32	0	5
TAP	32	24	4
TAP	32	48	5
TAP	32	96	2
TAP	32	120	3
TAP	32	144	2
TAP	32	192	5
TAP	32	216	4
TAP	32	240	5
TAP	32	288	2
TAP	32	312	3
TAP	32	336	2
STR	33	0	6
SI_	33	0	6	96	36	2
TAP	33	48	6
TAP	33	96	7
STR	33	192	0
SI_	33	192	0	96	36	4
TAP	33	240	0
TAP	33	288	7
TAP	34	0	6
TAP	34	48	0
TAP	34	72	7
TAP	34	96	0
TAP	34	144	1
TAP	34	144	6
TAP	34	192	2
TAP	34	216	4
TAP	34	240	2
TAP	34	264	4
TAP	34	288	3
TAP	34	312	5
TAP	34	336	3
TAP	34	360	5
TAP	35	0	3
TTP	35	96	0	C	1	M1
TTP	35	96	2	B	0	M1
TTP	35	96	5	B	0	M1
TAP	35	192	1
TAP	35	240	0
TAP	35	288	7
HLD	35	336	6	96
HLD	36	48	4	96
HLD	36	144	2	144
TAP	36	240	0
TAP	36	288	0
TAP	37	0	1
TAP	37	0	6
TTP	37	96	0	B	0	M1
TTP	37	96	0	C	0	M1
TTP	37	96	7	B	0	M1
TAP	37	192	2
TAP	37	240	3
TAP	37	288	4
HLD	37	336	5	144
TAP	38	48	2
TAP	38	96	2
TAP	38	192	6
TAP	38	216	0
TAP	38	240	6
TAP	38	264	0
TAP	38	288	7
TAP	38	312	1
TAP	38	336	7
TAP	38	360	1
STR	39	0	7
SI_	39	0	7	96	36	3
BRK	39	96	0
BRK	39	96	7
TAP	39	192	1
TAP	39	240	1
TAP	39	288	5
TAP	39	336	5
TAP	40	0	2
TAP	40	24	3
TAP	40	48	2
TAP	40	96	5
TAP	40	120	4
TAP	40	144	5
TAP	40	192	2
TAP	40	216	3
TAP	40	240	2
TAP	40	288	5
TAP	40	312	4
TAP	40	336	5
STR	41	0	1
SI_	41	0	1	96	36	5
TAP	41	48	1
TAP	41	96	0
STR	41	192	7
SI_	41	192	7	96	36	3
TAP	41	240	7
TAP	41	288	0
TAP	42	0	1
TAP	42	24	6
TAP	42	48	0
TAP	42	72	7
TAP	42	96	1
TAP	42	120	6
TAP	42	144	0
TAP	42	168	7
TTP	42	192	1	E	0	M1
TTP	42	208	1	B	0	M1
TTP	42	224	2	B	0	M1
TTP	42	240	3	E	0	M1
TTP	42	256	7	E	0	M1
TTP	42	272	6	B	0	M1
TTP	42	288	5	B	0	M1
TTP	42	304	5	E	0	M1
XTP	42	320	0
TTP	42	336	0	B	0	M1
TTP	42	352	0	C	0	M1
TTP	42	368	4	B	0	M1
XST	43	0	7
SF_	43	0	7	96	48	3
BRK	43	96	7
TAP	43	240	7
TAP	43	288	0
TAP	43	336	1
TAP	44	0	2
TAP	44	0	4
TAP	44	72	3
TAP	44	72	5
TAP	44	144	1
TAP	44	144	3
TAP	44	216	4
TAP	44	216	6
TAP	44	288	0
TAP	44	312	7
TAP	44	336	0
TAP	44	360	7
STR	45	0	0
SXL	45	0	0	96	192	4
TAP	45	96	5
TAP	45	144	5
TAP	45	240	6
TAP	45	288	6
STR	46	0	7
SXR	46	0	7	96	192	3
TAP	46	96	2
TAP	46	144	2
TAP	46	240	1
TAP	46	288	1
STR	47	0	0
SCR	47	0	0	96	144	4
TAP	47	96	4
STR	47	144	4
SUR	47	144	4	96	96	0
TAP	47	240	6
TAP	47	288	6
STR	48	0	4
SCR	48	0	4	96	144	0
TAP	48	96	0
STR	48	144	0
SUR	48	144	0	96	96	4
TAP	48	240	2
TAP	48	288	2
STR	49	0	0
SUL	49	0	0	96	192	7
TAP	49	96	4
TAP	49	144	4
TAP	49	240	3
TAP	49	288	3
TAP	50	0	0
TAP	50	0	7
TAP	50	96	7
TAP	50	120	6
TAP	50	144	5
TAP	50	168	4
TAP	50	192	7
TAP	50	216	0
TAP	50	240	1
TAP	50	264	2
TAP	50	288	7
TAP	50	312	6
TAP	50	336	5
TAP	50	360	4
STR	51	0	3
SF_	51	0	3	96	48	7
TAP	51	0	7
XTP	51	96	3
TAP	51	240	0
TAP	51	288	7
TAP	51	336	6
TAP	52	0	3
TAP	52	0	5
TAP	52	72	2
TAP	52	72	4
TAP	52	144	4
TAP	52	144	6
TAP	52	216	1
TAP	52	216	3
TAP	52	288	7
TAP	52	312	0
TAP	52	336	7
TAP	52	360	0
HLD	53	0	7	96
TAP	53	96	0
TAP	53	120	6
TAP	53	144	0
TAP	53	168	6
TAP	53	192	1
TAP	53	216	5
TAP	53	240	1
TAP	53	264	5
TAP	53	288	2
TAP	53	312	4
TAP	53	336	2
TAP	53	360	4
HLD	54	0	3	96
TAP	54	96	4
TAP	54	120	2
TAP	54	144	4
TAP	54	168	2
TAP	54	192	5
TAP	54	216	1
TAP	54	240	5
TAP	54	264	1
TAP	54	288	6
TAP	54	312	0
TAP	54	336	6
TAP	54	360	0
STR	55	0	7
SI_	55	0	7	96	120	3
TAP	55	96	1
TAP	55	144	1
TAP	55	192	1
TAP	55	240	1
TAP	55	288	1
TAP	55	312	3
TAP	55	336	1
TAP	55	360	3
STR	56	0	0
SI_	56	0	0	96	120	4
TAP	56	96	6
TAP	56	144	6
TAP	56	192	6
TAP	56	240	6
TAP	56	288	6
TAP	56	312	4
TAP	56	336	6
TAP	56	360	4
HLD	57	0	7	96
TAP	57	96	0
TAP	57	120	7
TAP	57	144	1
TAP	57	168	6
TAP	57	192	2
TAP	57	216	5
TAP	57	240	3
TAP	57	264	4
TAP	57	288	3
BRK	58	0	1
BRK	58	0	6
TAP	58	96	7
TAP	58	108	6
TAP	58	120	5
TAP	58	132	4
TAP	58	144	3
TAP	58	156	2
TAP	58	168	1
TAP	58	180	0
STR	58	192	7
SI_	58	192	7	96	36	3
TAP	58	204	6
TAP	58	216	5
TAP	58	228	4
TAP	58	240	3
TAP	58	252	2
TAP	58	264	1
TAP	58	276	0
XTP	58	288	7
HLD	59	0	2	768
TAP	59	96	4
TAP	59	192	5
TAP	59	288	5
TAP	60	0	6
TAP	60	96	6
TAP	60	192	7
TAP	60	288	7
TTP	60	336	6	B	0	M1
HLD	61	0	5	768
TAP	61	96	1
TAP	61	192	0
TAP	61	288	0
TAP	62	0	7
TAP	62	96	7
TTP	62	192	6	B	0	M1
TTP	62	264	0	E	0	M1
TTP	62	336	1	B	0	M1
HLD	63	0	3	768
TAP	63	96	4
TAP	63	192	5
TAP	63	288	5
TAP	64	0	6
TAP	64	96	6
TAP	64	192	7
TAP	64	288	7
TTP	64	336	6	B	0	M1
HLD	65	0	4	384
TAP	65	96	2
TAP	65	192	1
TAP	65	288	0
TTP	65	336	1	B	0	M1
HLD	66	0	3	192
TAP	66	96	7
TTP	66	144	6	B	0	M1
BRK	66	192	4
BRK	66	264	0
BRK	66	264	5
BRK	66	336	2
BRK	66	336	7
TAP	67	0	1
TAP	67	24	0
TAP	67	48	1
TAP	67	96	6
TAP	67	120	7
TAP	67	144	6
TAP	67	192	0
TAP	67	192	7
STR	67	240	0
SCR	67	240	0	96	48	3
STR	67	240	7
SCL	67	240	7	96	48	4
TAP	68	96	3
TAP	68	96	5
TAP	68	168	2
TAP	68	168	4
TAP	68	240	4
TAP	68	240	6
TAP	68	312	1
TAP	68	312	3
TAP	69	0	6
TAP	69	24	7
TAP	69	48	6
TAP	69	72	7
TAP	69	96	6
TAP	69	144	1
TAP	69	168	0
TAP	69	192	1
TAP	69	216	0
TAP	69	240	1
TTP	69	288	7	E	0	M1
TTP	69	300	6	B	0	M1
TTP	69	312	5	B	0	M1
TTP	69	324	5	E	0	M1
TTP	69	336	1	E	0	M1
TTP	69	348	1	B	0	M1
TTP	69	360	2	B	0	M1
TTP	69	372	3	E	0	M1
XTP	70	0	7
TAP	70	96	3
TAP	70	96	7
TAP	70	120	6
TAP	70	144	5
TAP	70	168	4
TAP	70	192	7
TAP	70	216	0
TAP	70	240	1
TAP	70	264	2
TAP	70	288	7
TAP	70	312	6
TAP	70	336	5
TAP	70	360	4
TAP	71	0	3
TAP	71	96	2
TAP	71	96	3
TAP	71	144	2
TAP	71	144	3
TAP	71	192	1
TAP	71	192	2
TAP	71	240	1
TAP	71	240	2
TAP	71	288	0
TAP	71	288	1
TAP	71	336	0
TAP	71	336	1
TAP	72	0	0
TAP	72	0	7
TAP	72	48	0
TAP	72	48	7
TAP	72	96	6
TAP	72	96	7
TAP	72	144	6
TAP	72	144	7
TAP	72	192	5
TAP	72	192	6
TAP	72	240	5
TAP	72	240	6
TAP	72	288	4
TAP	72	288	5
TAP	72	336	4
TAP	72	336	5
XTP	73	0	3
XTP	73	0	4
TAP	73	48	2
TAP	73	72	3
XTP	73	96	2
TAP	73	144	5
TAP	73	168	4
XTP	73	192	5
TAP	73	240	1
TAP	73	264	3
XTP	73	288	1
TAP	73	336	6
TAP	73	360	4
XTP	74	0	6
TAP	74	48	0
TAP	74	72	7
TAP	74	96	1
TAP	74	120	6
TAP	74	144	2
TAP	74	168	5
TAP	74	192	3
TAP	74	216	4
TAP	74	240	3
TAP	74	264	4
TTP	74	288	3	E	0	M1
TTP	74	300	2	B	0	M1
TTP	74	312	1	B	0	M1
TTP	74	324	1	E	0	M1
TTP	74	336	5	E	0	M1
TTP	74	348	5	B	0	M1
TTP	74	360	6	B	0	M1
TTP	74	372	7	E	0	M1
TTP	75	0	0	C	0	M1
STR	75	192	0
SI_	75	192	0	96	32	4
XTP	75	288	0
TTP	75	296	0	B	0	M1
TTP	75	304	0	C	0	M1
TTP	75	312	4	B	0	M1
XTP	76	0	2
XTP	76	0	6
TAP	76	96	1
TAP	76	96	5
STR	76	144	1
SI_	76	144	1	96	36	6
TAP	76	144	5
STR	76	240	3
SI_	76	240	3	96	36	7
STR	76	336	0
SI_	76	336	0	96	36	4
STR	77	48	5
SI_	77	48	5	96	36	2
STR	77	144	7
SI_	77	144	7	96	36	3
TAP	77	240	4
TAP	77	288	5
TAP	77	312	1
TAP	77	336	6
TAP	77	360	0
TAP	78	0	7
TAP	78	96	2
TAP	78	96	6
TAP	78	144	2
STR	78	144	6
SI_	78	144	6	96	36	1
STR	78	240	4
SI_	78	240	4	96	36	0
STR	78	336	7
SI_	78	336	7	96	36	3
STR	79	48	2
SI_	79	48	2	96	36	5
STR	79	144	0
SI_	79	144	0	96	36	4
TAP	79	240	3
HLD	79	336	2	384
TTP	80	96	3	B	0	M1
TTP	80	96	4	B	0	M1
TAP	80	192	0
TAP	80	240	7
TAP	80	288	6
HLD	80	336	5	96
HLD	81	48	0	96
TAP	81	144	7
TAP	81	240	2
TAP	81	240	5
TAP	81	288	2
TAP	81	288	5
TTP	82	0	0	B	0	M1
TTP	82	0	1	B	0	M1
TTP	82	0	1	E	0	M1
TTP	82	0	2	E	0	M1
TAP	82	96	3
TAP	82	96	4
TTP	82	144	6	B	0	M1
TTP	82	144	6	E	0	M1
TTP	82	144	7	E	0	M1
TTP	82	144	7	B	0	M1
TAP	82	240	3
TAP	82	240	4
TTP	82	336	0	B	0	M1
TTP	82	336	0	C	1	M1
TTP	82	336	1	B	0	M1
TTP	82	336	6	B	0	M1
TTP	82	336	7	B	0	M1
TAP	83	192	3
TAP	83	192	4
TAP	83	240	3
TAP	83	264	5
TAP	83	288	2
TAP	83	312	6
TAP	83	336	1
TAP	83	360	7
XTP	84	0	0
TAP	84	96	2
TAP	84	96	6
TAP	84	144	2
STR	84	144	6
SI_	84	144	6	96	36	1
STR	84	240	4
SI_	84	240	4	96	36	0
STR	84	336	7
SI_	84	336	7	96	36	3
STR	85	48	2
SI_	85	48	2	96	36	5
STR	85	144	0
SI_	85	144	0	96	36	4
TAP	85	240	3
TAP	85	288	2
TAP	85	312	6
TAP	85	336	1
TAP	85	360	7
TAP	86	0	0
TAP	86	96	1
TAP	86	96	5
STR	86	144	1
SI_	86	144	1	96	36	6
TAP	86	144	5
STR	86	240	3
SI_	86	240	3	96	36	7
STR	86	336	0
SI_	86	336	0	96	36	4
STR	87	48	5
SI_	87	48	5	96	36	2
STR	87	144	7
SI_	87	144	7	96	36	3
TAP	87	240	4
TAP	87	336	6
TAP	87	360	5
HLD	88	0	4	192
TTP	88	96	2	B	0	M1
TTP	88	96	3	B	0	M1
TAP	88	192	0
TAP	88	240	1
TAP	88	288	2
HLD	88	336	3	240
TTP	89	96	4	B	0	M1
TTP	89	96	5	B	0	M1
TAP	89	192	7
TAP	89	240	6
TAP	89	288	5
HLD	89	336	4	288
TAP	90	48	0
TAP	90	96	0
TAP	90	144	0
TAP	90	192	0
TAP	90	240	0
TAP	90	288	0
TAP	90	312	7
TAP	90	336	0
TAP	90	360	7
TAP	91	0	0
TAP	91	24	1
TAP	91	48	2
TAP	91	72	3
TAP	91	96	0
TAP	91	120	7
TAP	91	144	6
TAP	91	168	5
STR	91	192	0
SI_	91	192	0	96	36	5
TAP	91	216	1
TAP	91	240	2
TAP	91	264	3
XTP	91	288	0
TAP	91	288	4
BRK	92	0	1
BRK	92	0	6
TTP	92	96	0	C	1	M1
TTP	92	96	2	B	0	M1
TTP	92	96	5	B	0	M1
TAP	92	192	1
TAP	92	192	6
TAP	92	240	1
STR	92	240	6
SI_	92	240	6	96	36	2
XTP	92	336	6
STR	92	336	7
SI_	92	336	7	96	36	3
STR	93	48	0
SI_	93	48	0	96	36	4
XTP	93	48	7
XTP	93	144	0
STR	93	144	1
SI_	93	144	1	96	36	5
XTP	93	240	1
XTP	93	240	3
TAP	93	288	4
TAP	93	312	0
TAP	93	336	5
TAP	93	360	7
HLD	94	0	6	144
TAP	94	96	7
TAP	94	144	7
STR	94	240	1
SI_	94	240	1	96	36	5
TAP	94	240	6
STR	94	336	0
SI_	94	336	0	96	36	4
XTP	94	336	1
XTP	95	48	0
STR	95	48	7
SI_	95	48	7	96	36	3
STR	95	144	6
SI_	95	144	6	96	36	2
XTP	95	144	7
XTP	95	240	4
XTP	95	240	6
TAP	95	336	3
HLD	95	336	5	384
TTP	96	96	0	E	0	M1
TTP	96	96	0	B	0	M1
TTP	96	96	7	B	0	M1
TAP	96	192	3
TAP	96	240	2
TAP	96	288	1
HLD	96	336	0	96
HLD	97	48	7	96
TAP	97	144	2
TAP	97	240	0
TAP	97	240	7
TAP	97	288	0
TAP	97	288	7
TTP	98	0	6	E	0	M1
TTP	98	0	6	B	0	M1
TTP	98	0	7	E	0	M1
TTP	98	0	7	B	0	M1
TAP	98	96	3
TAP	98	96	4
TTP	98	144	0	B	0	M1
TTP	98	144	1	B	0	M1
TTP	98	144	1	E	0	M1
TTP	98	144	2	E	0	M1
TAP	98	240	3
TAP	98	240	4
TTP	98	336	0	B	0	M1
TTP	98	336	0	C	1	M1
TTP	98	336	1	B	0	M1
TTP	98	336	6	B	0	M1
TTP	98	336	7	B	0	M1
TAP	99	192	3
TAP	99	192	4
TAP	99	240	3
TAP	99	264	5
TAP	99	288	2
TAP	99	312	6
TAP	99	336	1
TAP	99	360	7
XTP	100	0	0
TTP	100	96	6	E	0	M1
TTP	100	120	5	B	0	M1
TTP	100	144	4	B	0	M1
TTP	100	168	4	E	0	M1
TTP	100	192	0	E	0	M1
TTP	100	216	0	B	0	M1
TTP	100	240	1	B	0	M1
TTP	100	264	2	E	0	M1
TTP	100	288	7	E	0	M1
TTP	100	312	6	B	0	M1
TTP	100	336	5	B	0	M1
TTP	100	360	5	E	0	M1
TTP	101	0	1	E	0	M1
TTP	101	24	1	B	0	M1
TTP	101	48	2	B	0	M1
TTP	101	72	3	E	0	M1
TTP	101	96	0	E	0	M1
TTP	101	120	7	B	0	M1
TTP	101	144	6	B	0	M1
TTP	101	168	6	E	0	M1
TTP	101	192	2	E	0	M1
TTP	101	216	2	B	0	M1
TTP	101	240	3	B	0	M1
TTP	101	264	4	E	0	M1
XTP	101	288	5
XTP	101	312	2
XTP	101	336	5
XTP	101	360	2
XTP	102	0	5
TTP	102	96	1	E	0	M1
TTP	102	120	1	B	0	M1
TTP	102	144	2	B	0	M1
TTP	102	168	3	E	0	M1
TTP	102	192	7	E	0	M1
TTP	102	216	6	B	0	M1
TTP	102	240	5	B	0	M1
TTP	102	264	5	E	0	M1
XTP	102	288	3
XTP	102	312	4
XST	102	336	3
SI_	102	336	3	96	36	0
BRK	103	48	3
XST	103	48	7
SI_	103	48	7	96	36	4
XST	103	144	1
SI_	103	144	1	96	36	5
BRK	103	144	7
BRK	103	240	1
XTP	103	240	6
TAP	103	336	3
TAP	103	360	4
HLD	104	0	3	336
TTP	104	96	0	B	0	M1
TTP	104	96	0	C	1	M1
TTP	104	96	1	B	0	M1
TAP	104	192	7
TAP	104	240	6
TAP	104	288	5
HLD	104	336	4	384
TTP	105	96	0	C	1	M1
TTP	105	96	6	B	0	M1
TTP	105	96	7	B	0	M1
TAP	105	192	3
TAP	105	240	2
TAP	105	288	1
HLD	105	336	0	288
TAP	106	48	7
TAP	106	96	7
TAP	106	144	7
TAP	106	192	7
TAP	106	240	7
TAP	106	288	7
TAP	106	312	0
TAP	106	336	7
TAP	106	360	0
TAP	107	0	7
TAP	107	24	6
TAP	107	48	5
TAP	107	72	4
TAP	107	96	7
TAP	107	120	0
TAP	107	144	1
TAP	107	168	2
STR	107	192	7
SI_	107	192	7	96	36	2
TAP	107	216	6
TAP	107	240	5
TAP	107	264	4
XTP	107	288	3
XTP	107	288	7
TTP	108	0	0	C	1	M1
TTP	108	0	2	B	0	M1
TTP	108	0	3	B	0	M1
TTP	108	0	4	B	0	M1
TTP	108	0	5	B	0	M1
XST	108	96	1
SXR	108	96	1	96	672	4
XST	108	96	6
SXL	108	96	6	96	672	3

T_REC_TAP	576
T_REC_BRK	17
T_REC_XTP	41
T_REC_HLD	53
T_REC_XHO	0
T_REC_STR	77
T_REC_BST	0
T_REC_XST	6
T_REC_TTP	154
T_REC_THO	0
T_REC_SLD	83
T_REC_ALL	1007
T_NUM_TAP	854
T_NUM_BRK	17
T_NUM_HLD	53
T_NUM_SLD	83
T_NUM_ALL	1007
T_JUDGE_TAP	871
T_JUDGE_HLD	306
T_JUDGE_SLD	83
T_JUDGE_ALL	1260
TTM_EACHPAIRS	105
TTM_SCR_TAP	427000
TTM_SCR_BRK	44200
TTM_SCR_HLD	53000
TTM_SCR_SLD	124500
TTM_SCR_ALL	648700
TTM_SCR_S	627600
TTM_SCR_SS	647000
TTM_RAT_ACV	10026

