VERSION	0.00.00	1.03.00
FES_MODE	0
BPM_DEF	 95.500	191.000	191.000	 61.000
MET_DEF	4	4
RESOLUTION	384
CLK_DEF	384
COMPATIBLE_CODE	MA2

BPM	0	0	 95.500
BPM	8	96	 87.000
BPM	8	288	 78.000
BPM	9	96	 69.000
BPM	9	288	 61.000
BPM	10	0	 63.000
BPM	10	96	191.000
MET	0	0	4	4
CLK	0	0
CLK	0	96
CLK	0	192
CLK	0	288

STR	2	0	3
SCL	2	0	3	96	288	4
TAP	2	0	4
TAP	3	192	3
TAP	3	288	4
STR	4	0	5
SCR	4	0	5	96	288	4
HLD	5	192	3	96
HLD	5	192	4	96
TTP	6	0	4	E	0	M1
TTP	6	192	0	C	0	M1
TTP	7	0	1	B	0	M1
TTP	7	0	2	B	0	M1
TTP	7	96	5	B	0	M1
TTP	7	96	6	B	0	M1
TTP	7	192	0	C	0	M1
STR	7	288	0
SCR	7	288	0	96	192	3
STR	7	288	7
SCL	7	288	7	96	192	4
STR	8	288	3
SI_	8	288	3	96	120	0
STR	8	288	4
SI_	8	288	4	96	120	7
THO	9	192	0	288	C	1	M1
TAP	11	0	4
TAP	11	0	6
TAP	11	96	4
TAP	11	96	5
TAP	11	144	4
TAP	11	144	5
TAP	11	240	3
TAP	11	240	6
STR	11	336	2
SI_	11	336	2	96	48	4
TAP	12	48	6
STR	12	144	5
SI_	12	144	5	96	48	3
TAP	12	240	0
TAP	12	288	0
TAP	13	0	1
TAP	13	0	3
TAP	13	96	2
TAP	13	96	3
TAP	13	144	2
TAP	13	144	3
TAP	13	240	1
TAP	13	240	4
STR	13	336	2
SI_	13	336	2	96	48	4
TAP	14	48	6
STR	14	144	5
SI_	14	144	5	96	48	3
TAP	14	240	1
HLD	14	336	2	144
TAP	15	96	3
TAP	15	192	2
TAP	15	240	3
TAP	15	288	4
HLD	15	336	5	96
HLD	16	48	7	96
HLD	16	144	0	96
TAP	16	240	2
TAP	16	288	2
TAP	17	0	2
TAP	17	0	3
TAP	17	96	4
TAP	17	96	5
TAP	17	144	4
TAP	17	144	5
XST	17	240	7
SCL	17	240	7	96	144	2
STR	18	192	0
SI_	18	192	0	96	48	4
TAP	19	0	6
TAP	19	96	4
TAP	19	96	5
TAP	19	144	4
TAP	19	144	5
TAP	19	240	3
TAP	19	240	6
STR	19	336	2
SI_	19	336	2	96	48	4
TAP	20	48	6
STR	20	144	5
SI_	20	144	5	96	48	3
TAP	20	240	0
TAP	20	288	0
TAP	21	0	1
TAP	21	0	3
TAP	21	96	2
TAP	21	96	3
TAP	21	144	2
TAP	21	144	3
TAP	21	240	1
TAP	21	240	4
STR	21	336	5
SI_	21	336	5	96	48	3
TAP	22	48	1
STR	22	144	2
SI_	22	144	2	96	48	4
TAP	22	240	6
TAP	22	336	5
TAP	23	0	5
TAP	23	96	4
TAP	23	96	6
TAP	23	192	6
TAP	23	240	7
TAP	23	288	0
STR	23	336	1
SI_	23	336	1	96	48	4
TAP	24	192	5
TAP	24	240	4
TAP	24	288	3
STR	24	336	2
SI_	24	336	2	96	48	7
TAP	25	192	4
TAP	25	192	5
TAP	25	240	4
TAP	25	240	5
TAP	25	288	4
TAP	25	288	5
THO	26	0	0	288	C	1	M1
TTP	26	0	2	B	0	M1
TTP	26	0	3	B	0	M1
TTP	26	0	6	B	0	M1
TTP	26	0	7	B	0	M1
BRK	27	96	0
BRK	27	96	7
HLD	27	192	5	336
TAP	27	288	4
TAP	27	336	4
TAP	28	48	3
HLD	28	144	4	144
TAP	28	240	6
TAP	28	288	6
TAP	29	0	4
TAP	29	0	5
TAP	29	96	3
TAP	29	96	6
HLD	29	192	4	336
TAP	29	288	5
TAP	29	336	5
TAP	30	48	6
HLD	30	144	5	144
TAP	30	240	4
TAP	30	288	4
TAP	31	0	2
TAP	31	0	3
TAP	31	96	1
TAP	31	96	4
TAP	31	192	3
TAP	31	240	4
HLD	31	288	5	96
HLD	32	0	7	96
HLD	32	96	0	96
HLD	32	192	2	96
TAP	32	288	5
TTP	33	0	3	B	0	M1
TTP	33	0	4	B	0	M1
TTP	33	96	1	E	0	M1
TTP	33	96	7	E	0	M1
TTP	33	192	0	C	0	M1
TTP	33	288	2	E	0	M1
TTP	33	288	6	E	0	M1
STR	34	0	7
SI_	34	0	7	96	48	3
STR	34	192	0
SI_	34	192	0	96	48	4
TAP	35	0	7
BRK	35	96	0
BRK	35	96	5
HLD	35	192	2	336
TAP	35	288	3
TAP	35	336	3
TAP	36	48	4
HLD	36	144	3	144
TAP	36	240	1
TAP	36	288	1
TAP	37	0	2
TAP	37	0	3
TAP	37	96	1
TAP	37	96	4
HLD	37	192	3	336
TAP	37	288	2
TAP	37	336	2
TAP	38	48	1
HLD	38	144	2	144
TAP	38	240	3
TAP	38	288	3
TAP	39	0	4
TAP	39	0	5
TAP	39	96	3
TAP	39	96	6
TAP	39	192	4
TAP	39	240	3
HLD	39	288	2	96
HLD	40	0	0	96
HLD	40	96	7	96
HLD	40	192	5	96
TAP	40	288	2
TTP	41	0	3	B	0	M1
TTP	41	0	4	B	0	M1
TTP	41	96	1	E	0	M1
TTP	41	96	7	E	0	M1
TTP	41	192	0	C	0	M1
TTP	41	288	2	E	0	M1
TTP	41	288	6	E	0	M1
TAP	42	0	6
TAP	42	48	6
TAP	42	96	1
TAP	42	144	1
TAP	42	192	7
TAP	42	216	0
TAP	42	240	7
TAP	42	264	0
TAP	42	288	7
BST	43	0	1
SI_	43	0	1	96	48	4
BST	43	0	6
SI_	43	0	6	96	48	3
XHO	44	0	4	72
TAP	44	0	6
XHO	44	72	5	72
XHO	44	144	4	72
XHO	44	216	3	72
STR	44	288	2
SCL	44	288	2	96	288	5
STR	46	0	0
SCR	46	0	0	96	96	3
STR	46	192	7
SCL	46	192	7	96	96	4
STR	47	0	1
SCR	47	0	1	96	192	6
TAP	47	288	7
STR	48	0	7
SCL	48	0	7	96	192	2
TAP	48	288	1
STR	49	0	1
SCR	49	0	1	96	192	6
TAP	49	288	7
STR	50	0	7
SI_	50	0	7	96	96	3
STR	50	192	2
SCR	50	192	2	96	96	5
TAP	51	0	7
BRK	51	96	1
BRK	51	96	6
TAP	52	0	1
XHO	52	0	3	72
XHO	52	72	2	72
XHO	52	144	3	72
XHO	52	216	4	72
STR	52	288	5
SCL	52	288	5	96	144	2
TAP	53	288	0
STR	53	288	1
SCL	53	288	1	96	144	6
TAP	54	288	0
TAP	54	288	5
TAP	55	0	6
TAP	55	48	6
TAP	55	96	7
TAP	55	144	7
TAP	55	192	6
BRK	55	288	0
BRK	55	288	5
TAP	56	0	1
TAP	56	48	1
TAP	56	96	0
TAP	56	144	0
TAP	56	192	1
BRK	56	288	2
BRK	56	288	7
TAP	57	0	0
TAP	57	0	7
TAP	57	48	0
TAP	57	48	7
TAP	57	96	0
TAP	57	96	7
TAP	57	144	0
TAP	57	144	7
STR	57	192	0
SCR	57	192	0	96	96	3
STR	57	192	7
SCL	57	192	7	96	96	4
TTP	58	96	0	C	1	M1
TTP	58	96	2	E	0	M1
TTP	58	96	6	E	0	M1
HLD	59	0	4	480
TTP	59	96	4	E	0	M1
TTP	59	192	2	B	0	M1
TTP	59	288	1	B	0	M1
TTP	60	0	0	E	0	M1
STR	60	96	7
SI_	60	96	7	96	96	3
HLD	61	0	2	480
TTP	61	96	4	E	0	M1
TTP	61	192	5	B	0	M1
TTP	61	288	6	B	0	M1
TTP	62	0	0	E	0	M1
STR	62	96	0
SI_	62	96	0	96	96	4
HLD	63	0	5	480
TTP	63	96	4	E	0	M1
TTP	63	192	3	E	0	M1
TTP	63	288	2	E	0	M1
TTP	64	0	1	E	0	M1
STR	64	96	7
SI_	64	96	7	96	96	3
HLD	65	0	1	480
TAP	65	96	3
TAP	65	192	3
TAP	65	288	3
HLD	66	0	3	96
TTP	66	192	0	B	0	M1
TTP	66	192	0	C	1	M1
TTP	66	192	4	B	0	M1
TAP	67	0	5
TAP	67	48	5
TAP	67	96	4
TAP	67	192	4
TAP	67	192	5
TAP	67	288	3
TAP	67	288	6
TAP	68	0	2
TAP	68	48	2
TAP	68	96	3
TAP	68	192	2
TAP	68	192	3
TAP	68	288	1
TAP	68	288	4
TAP	69	0	6
TAP	69	48	6
TAP	69	96	5
TAP	69	96	7
TAP	69	192	1
TAP	69	240	1
TAP	69	288	0
TAP	69	288	2
STR	70	0	6
SI_	70	0	6	96	48	4
STR	70	96	0
SI_	70	96	0	96	48	2
STR	70	192	7
SI_	70	192	7	96	48	3
TAP	71	0	2
TAP	71	48	2
TAP	71	96	2
TAP	71	144	2
TAP	71	192	2
XTP	71	288	0
XTP	71	288	1
TAP	72	0	5
TAP	72	48	5
TAP	72	96	5
TAP	72	144	5
TAP	72	192	5
XTP	72	288	6
XTP	72	288	7
TAP	73	0	2
TAP	73	48	3
XTP	73	96	1
XTP	73	96	4
TAP	73	192	5
TAP	73	240	4
XTP	73	288	3
XTP	73	288	6
XTP	74	0	6
XTP	74	0	7
XTP	74	96	4
XTP	74	96	5
XTP	74	192	2
XTP	74	192	3
XTP	74	288	0
XTP	74	288	1
THO	75	0	0	192	C	1	M1
TTP	75	0	2	E	0	M1
TTP	75	0	6	E	0	M1
BRK	76	0	0
BRK	76	0	7
TAP	76	96	2
TAP	76	96	3
HLD	76	144	1	96
TAP	76	144	4
TAP	76	240	0
XTP	76	336	2
XST	76	336	7
SI_	76	336	7	96	48	3
TAP	77	48	1
XST	77	144	0
SI_	77	144	0	96	48	4
XTP	77	144	5
TAP	77	240	6
TAP	77	288	6
XTP	78	0	0
XTP	78	0	7
TAP	78	96	4
TAP	78	96	5
TAP	78	144	3
HLD	78	144	6	96
TAP	78	240	7
XST	78	336	0
SI_	78	336	0	96	48	4
XTP	78	336	5
TAP	79	48	6
XTP	79	144	2
XST	79	144	7
SI_	79	144	7	96	48	3
TAP	79	240	1
HLD	79	336	0	144
TAP	80	48	7
TAP	80	96	7
TAP	80	192	1
TAP	80	240	0
TAP	80	288	7
HLD	80	336	6	96
HLD	81	48	4	96
HLD	81	144	3	96
TAP	81	240	1
TAP	81	288	1
XTP	82	0	4
XTP	82	0	5
TAP	82	96	6
TAP	82	96	7
XTP	82	144	6
XTP	82	144	7
XST	82	240	0
SCR	82	240	0	96	144	5
XTP	82	240	7
TTP	83	192	6	E	0	M1
TTP	83	240	0	C	0	M1
TTP	83	288	2	E	0	M1
BRK	84	0	0
BRK	84	0	7
TAP	84	96	4
TAP	84	96	5
TAP	84	144	3
HLD	84	144	6	96
TAP	84	240	7
XTP	84	336	0
XST	84	336	1
SI_	84	336	1	96	48	4
TAP	85	48	6
XST	85	144	6
SI_	85	144	6	96	48	3
XTP	85	144	7
TAP	85	240	1
TAP	85	288	1
XTP	86	0	0
XTP	86	0	7
TAP	86	96	2
TAP	86	96	3
HLD	86	144	1	96
TAP	86	144	4
TAP	86	240	0
XST	86	336	6
SI_	86	336	6	96	48	3
XTP	86	336	7
TAP	87	48	2
XTP	87	144	0
XST	87	144	1
SI_	87	144	1	96	48	4
TAP	87	240	5
TAP	87	336	6
TAP	88	0	6
TAP	88	96	5
TAP	88	96	7
TAP	88	192	4
TAP	88	240	3
TAP	88	288	2
HLD	88	336	1	96
TAP	89	48	0
TAP	89	96	0
TAP	89	192	3
TAP	89	240	4
TAP	89	288	5
HLD	89	336	6	96
XTP	90	48	7
XTP	90	96	7
XTP	90	144	7
XTP	90	192	6
XTP	90	192	7
BRK	90	288	0
BRK	90	288	5
TTP	91	0	0	B	0	M1
THO	91	0	0	192	C	1	M1
TTP	91	0	1	B	0	M1
TTP	91	0	4	B	0	M1
TTP	91	0	5	B	0	M1
BRK	92	0	0
BRK	92	0	7
TAP	92	96	4
TAP	92	96	5
TAP	92	144	3
TAP	92	144	6
STR	92	240	1
SI_	92	240	1	96	48	4
STR	92	240	5
SI_	92	240	5	96	48	0
STR	93	48	2
SI_	93	48	2	96	48	7
STR	93	48	6
SI_	93	48	6	96	48	3
XTP	93	240	1
XTP	93	240	5
XTP	93	288	1
XTP	93	288	5
BRK	94	0	7
TAP	94	96	2
TAP	94	96	3
TAP	94	144	1
TAP	94	144	4
STR	94	240	2
SI_	94	240	2	96	48	7
STR	94	240	6
SI_	94	240	6	96	48	3
STR	95	48	1
SI_	95	48	1	96	48	4
STR	95	48	5
SI_	95	48	5	96	48	0
TAP	95	240	2
TAP	95	240	6
TTP	95	336	0	E	0	M1
TTP	95	336	0	C	1	M1
TTP	95	336	4	E	0	M1
TAP	96	192	5
TAP	96	240	4
TAP	96	288	3
HLD	96	336	2	96
HLD	97	48	0	96
HLD	97	144	7	96
TAP	97	240	5
TAP	97	288	5
BRK	98	0	0
BRK	98	0	4
XTP	98	96	1
XTP	98	96	5
BRK	98	144	1
BRK	98	144	5
BRK	98	240	3
BRK	98	240	7
BST	98	336	0
SCL	98	336	0	96	48	5
BST	98	336	4
SCL	98	336	4	96	48	1
TTP	99	192	0	C	1	M1
TTP	99	192	2	E	0	M1
TTP	99	192	6	E	0	M1
BRK	100	0	0
BRK	100	0	7
TAP	100	96	2
TAP	100	120	3
TAP	100	144	2
TAP	100	192	5
TAP	100	216	4
TAP	100	240	5
TAP	100	288	2
TAP	100	312	3
TAP	100	336	2
TAP	101	0	5
TAP	101	24	4
TAP	101	48	5
TAP	101	96	2
TAP	101	120	3
TAP	101	144	2
TAP	101	192	5
TAP	101	216	4
TAP	101	240	5
BRK	101	288	1
BRK	101	288	6
XTP	102	0	0
XTP	102	24	7
XTP	102	48	0
XTP	102	72	7
XTP	102	96	0
XTP	102	120	7
XTP	102	144	0
XTP	102	168	7
XTP	102	192	0
XTP	102	216	7
XTP	102	240	0
XTP	102	264	7
XTP	102	288	0
XTP	102	312	7
BRK	102	336	0
STR	103	48	6
SI_	103	48	6	96	48	2
STR	103	144	1
SI_	103	144	1	96	48	5
STR	103	240	7
SI_	103	240	7	96	48	3
TAP	103	336	2
TAP	104	0	2
TAP	104	96	1
TAP	104	96	3
TAP	104	192	6
TAP	104	240	7
TAP	104	288	0
TAP	104	288	5
TAP	104	336	0
HLD	104	336	5	96
TAP	105	48	4
TAP	105	96	4
TAP	105	192	1
TAP	105	240	0
TAP	105	288	2
TAP	105	288	7
HLD	105	336	2	96
TAP	105	336	7
TAP	106	48	3
TAP	106	96	3
TAP	106	144	3
TAP	106	192	0
TAP	106	216	7
TAP	106	240	0
TAP	106	264	7
BRK	106	288	0
TAP	107	0	6
TAP	107	0	7
TAP	107	48	6
TAP	107	48	7
TAP	107	96	0
TAP	107	96	5
TAP	107	144	0
TAP	107	144	5
TAP	107	192	1
TAP	107	192	4
TTP	107	288	0	C	1	M1
TTP	107	288	2	E	0	M1
TTP	107	288	6	E	0	M1
BST	108	96	0
SCR	108	96	0	96	672	7
BRK	108	96	7

T_REC_TAP	303
T_REC_BRK	32
T_REC_XTP	58
T_REC_HLD	42
T_REC_XHO	8
T_REC_STR	48
T_REC_BST	5
T_REC_XST	10
T_REC_TTP	61
T_REC_THO	4
T_REC_SLD	63
T_REC_ALL	634
T_NUM_TAP	480
T_NUM_BRK	37
T_NUM_HLD	54
T_NUM_SLD	63
T_NUM_ALL	634
T_JUDGE_TAP	517
T_JUDGE_HLD	188
T_JUDGE_SLD	63
T_JUDGE_ALL	768
TTM_EACHPAIRS	120
TTM_SCR_TAP	240000
TTM_SCR_BRK	96200
TTM_SCR_HLD	54000
TTM_SCR_SLD	94500
TTM_SCR_ALL	484700
TTM_SCR_S	466600
TTM_SCR_SS	481000
TTM_RAT_ACV	10076

