VERSION	0.00.00	1.03.00
FES_MODE	0
BPM_DEF	 95.500	191.000	191.000	 61.000
MET_DEF	4	4
RESOLUTION	384
CLK_DEF	384
COMPATIBLE_CODE	MA2

BPM	0	0	 95.500
BPM	8	96	 87.000
BPM	8	288	 78.000
BPM	9	96	 69.000
BPM	9	288	 61.000
BPM	10	0	 63.000
BPM	10	96	191.000
MET	0	0	4	4

TTP	2	0	5	E	0	L1
TTP	2	192	4	E	0	L1
TTP	3	0	3	E	0	L1
TTP	4	0	3	B	0	L1
TTP	4	192	4	B	0	L1
TTP	5	0	2	B	0	L1
TTP	5	0	5	B	0	L1
TTP	6	0	6	E	0	L1
TTP	6	192	0	C	0	L1
TTP	7	0	2	E	0	L1
TTP	7	192	1	E	0	L1
TTP	8	0	0	B	0	L1
TTP	8	0	7	B	0	L1
TTP	8	192	1	B	0	L1
TTP	8	192	6	B	0	L1
TTP	9	0	2	B	0	L1
TTP	9	0	5	B	0	L1
THO	9	192	0	288	C	0	L1
XTP	11	0	2
TAP	11	96	2
TAP	11	192	3
TAP	11	288	3
TAP	12	0	2
TAP	12	96	2
TAP	12	192	1
TAP	12	192	3
TAP	13	0	5
TAP	13	96	5
TAP	13	192	4
TAP	13	288	4
TAP	14	0	5
TAP	14	96	5
TAP	14	192	4
TAP	14	192	6
XHO	15	0	2	96
XHO	15	0	3	96
TAP	15	192	2
TAP	15	192	3
XHO	16	0	4	96
XHO	16	0	5	96
TAP	16	192	4
TAP	16	192	5
TAP	17	0	2
TAP	17	96	2
TAP	17	192	5
TAP	17	288	5
TAP	18	0	4
TAP	18	96	3
TAP	18	192	2
TAP	18	192	5
XTP	19	0	1
TAP	19	96	1
TAP	19	192	0
TAP	19	288	0
TAP	20	0	1
TAP	20	96	1
TAP	20	192	0
TAP	20	192	2
XTP	21	0	6
TAP	21	96	6
TAP	21	192	7
TAP	21	288	7
TAP	22	0	6
TAP	22	96	6
TAP	22	192	5
TAP	22	192	7
HLD	23	0	4	96
HLD	23	0	5	96
TAP	23	192	3
TAP	23	192	6
HLD	24	0	2	96
HLD	24	0	3	96
TAP	24	192	1
TAP	24	192	4
STR	25	0	0
SI_	25	0	0	96	192	4
TAP	26	0	5
TAP	26	96	5
XTP	26	192	4
XTP	26	192	6
HLD	27	0	4	96
HLD	27	0	5	96
TAP	27	192	4
TAP	27	192	5
TAP	28	0	3
TAP	28	96	3
TAP	28	192	3
TAP	28	192	4
HLD	29	0	2	96
HLD	29	0	3	96
TAP	29	192	2
TAP	29	192	3
TAP	30	0	4
TAP	30	96	4
TAP	30	192	3
TAP	30	192	4
HLD	31	0	2	288
TAP	31	96	3
TAP	31	192	3
TAP	31	288	3
TAP	32	0	2
TAP	32	0	3
TAP	32	96	3
TAP	32	96	4
TAP	32	192	4
TAP	32	192	5
HLD	33	0	5	288
TAP	33	96	4
TAP	33	192	4
TAP	33	288	4
TAP	34	0	3
TAP	34	0	4
TAP	34	96	3
TAP	34	96	4
TAP	34	192	2
TAP	34	192	5
HLD	35	0	2	96
HLD	35	0	3	96
TAP	35	192	2
TAP	35	192	3
TAP	36	0	4
TAP	36	96	3
TAP	36	192	3
TAP	36	192	4
HLD	37	0	4	96
HLD	37	0	5	96
TAP	37	192	4
TAP	37	192	5
TAP	38	0	4
TAP	38	96	3
TAP	38	192	2
TAP	38	192	5
HLD	39	0	1	288
TAP	39	96	0
TAP	39	192	0
TAP	39	288	0
TAP	40	0	0
TAP	40	0	1
TAP	40	96	0
TAP	40	96	7
TAP	40	192	6
TAP	40	192	7
HLD	41	0	6	288
TAP	41	96	7
TAP	41	192	7
TAP	41	288	7
TAP	42	0	0
TAP	42	96	0
TAP	42	96	7
XTP	42	192	1
XTP	42	192	6
XST	43	0	0
SI_	43	0	0	96	288	4
TAP	44	192	5
STR	45	0	5
SI_	45	0	5	96	288	0
TAP	46	192	1
STR	47	0	1
SI_	47	0	1	96	288	4
TAP	48	192	5
HLD	49	0	3	192
HLD	49	0	4	192
TAP	50	0	3
TAP	50	96	4
TAP	50	192	2
TAP	50	192	5
XST	51	0	3
SI_	51	0	3	96	288	7
TAP	52	192	6
STR	53	0	6
SI_	53	0	6	96	288	3
TAP	54	192	2
STR	55	0	3
SI_	55	0	3	96	288	0
STR	55	0	4
SI_	55	0	4	96	288	7
TAP	56	192	1
TAP	56	192	6
HLD	57	0	0	384
HLD	57	192	7	192
BRK	58	96	1
BRK	58	96	6
TTP	59	0	3	E	0	L1
TTP	59	192	4	E	0	L1
TTP	60	0	5	E	0	L1
TTP	60	192	6	E	0	L1
THO	61	0	0	384	C	0	L1
TTP	63	0	5	E	0	L1
TTP	63	192	4	E	0	L1
TTP	64	0	3	E	0	L1
TTP	64	192	2	E	0	L1
THO	65	0	0	384	C	0	L1
TTP	67	0	3	E	0	L1
TTP	67	96	2	B	0	L1
TTP	67	192	1	B	0	L1
TTP	68	0	5	E	0	L1
TTP	68	96	5	B	0	L1
TTP	68	192	6	B	0	L1
TTP	69	0	1	E	0	L1
TTP	69	0	7	E	0	L1
TTP	69	192	2	E	0	L1
TTP	69	192	6	E	0	L1
TTP	70	0	3	E	0	L1
TTP	70	0	5	E	0	L1
TTP	71	0	6	B	0	L1
TTP	71	96	0	C	0	L1
TTP	71	192	2	B	0	L1
TTP	72	0	1	B	0	L1
TTP	72	96	0	C	0	L1
TTP	72	192	5	B	0	L1
TTP	73	0	3	B	0	L1
TTP	73	0	4	B	0	L1
TTP	73	192	2	B	0	L1
TTP	73	192	5	B	0	L1
THO	74	0	0	384	C	1	L1
XTP	75	288	1
XTP	75	288	6
BRK	76	0	1
TAP	76	96	0
TAP	76	96	1
TAP	76	192	6
TAP	76	288	6
TAP	76	288	7
TAP	77	0	5
TAP	77	96	4
TAP	77	96	5
TAP	77	192	3
TAP	77	192	6
TAP	77	288	2
TAP	77	288	7
TAP	78	0	1
TAP	78	96	0
TAP	78	96	1
TAP	78	192	6
TAP	78	288	6
TAP	78	288	7
TAP	79	0	1
TAP	79	96	0
TAP	79	96	1
TAP	79	192	2
TAP	79	192	7
TAP	79	288	3
TAP	79	288	6
HLD	80	0	5	96
XTP	80	96	4
TAP	80	192	3
TAP	80	192	6
HLD	81	0	2	96
TAP	81	96	3
TAP	81	192	1
TAP	81	192	4
TAP	82	0	5
TAP	82	96	3
TAP	82	96	4
TAP	82	192	2
TAP	82	288	3
TAP	82	288	4
TAP	83	0	2
TAP	83	0	5
TAP	83	96	1
TAP	83	96	6
XTP	83	192	0
XTP	83	192	7
TAP	84	0	2
TAP	84	96	2
TAP	84	96	3
TAP	84	192	5
TAP	84	288	4
TAP	84	288	5
TAP	85	0	2
TAP	85	96	2
TAP	85	96	3
TAP	85	192	1
TAP	85	192	4
TAP	85	288	0
TAP	85	288	5
XTP	86	0	6
TAP	86	96	6
TAP	86	96	7
TAP	86	192	1
TAP	86	288	0
TAP	86	288	1
TAP	87	0	6
TAP	87	0	7
TAP	87	96	0
TAP	87	96	5
XTP	87	192	1
XTP	87	192	4
XHO	88	0	0	96
XHO	88	0	1	96
TAP	88	192	2
TAP	88	192	7
XHO	89	0	6	96
XHO	89	0	7	96
TAP	89	192	0
TAP	89	192	5
STR	90	0	0
SI_	90	0	0	96	288	4
STR	90	0	7
SI_	90	0	7	96	288	3
XTP	91	192	2
XTP	91	192	5
XTP	91	288	2
XTP	91	288	5
BRK	92	0	1
TAP	92	96	0
TAP	92	96	1
TAP	92	192	2
TAP	92	288	2
TAP	92	288	3
TAP	93	0	5
TAP	93	96	4
TAP	93	96	5
TAP	93	192	3
TAP	93	192	6
TAP	93	288	2
TAP	93	288	7
TAP	94	0	1
TAP	94	96	0
TAP	94	96	1
TAP	94	192	6
TAP	94	288	6
TAP	94	288	7
TAP	95	0	4
TAP	95	0	5
TAP	95	96	3
TAP	95	96	6
XTP	95	192	2
XTP	95	192	7
TAP	96	0	2
TAP	96	0	3
XTP	96	96	1
TAP	96	192	0
TAP	96	192	7
TAP	96	288	0
TAP	96	288	7
TAP	97	0	6
TAP	97	96	5
TAP	97	192	3
TAP	97	192	4
TAP	97	288	3
TAP	97	288	4
STR	98	0	3
SI_	98	0	3	96	288	7
STR	98	0	4
SI_	98	0	4	96	288	0
XTP	99	192	1
XTP	99	192	6
XTP	100	0	6
XTP	100	0	7
TAP	100	96	6
TAP	100	96	7
TAP	100	192	4
TAP	100	192	5
TAP	100	288	4
TAP	100	288	5
TAP	101	0	2
TAP	101	0	3
TAP	101	96	2
TAP	101	96	3
TAP	101	192	0
TAP	101	192	1
TAP	101	288	0
TAP	101	288	1
XTP	102	0	2
XTP	102	0	3
TAP	102	96	4
TAP	102	96	5
TAP	102	192	6
TAP	102	192	7
TAP	102	288	6
TAP	102	288	7
TAP	103	0	4
TAP	103	0	5
TAP	103	96	2
TAP	103	96	3
BRK	103	192	1
BRK	103	192	4
TAP	104	0	0
TAP	104	96	1
TAP	104	192	2
TAP	104	288	3
TAP	105	0	4
TAP	105	96	5
TAP	105	192	6
TAP	105	288	0
TAP	105	288	7
TAP	106	0	1
TAP	106	0	6
TAP	106	96	1
TAP	106	96	6
TAP	106	192	2
TAP	106	192	5
TAP	106	288	2
TAP	106	288	5
TAP	107	0	4
TAP	107	48	4
TAP	107	96	4
TAP	107	192	3
TAP	107	240	3
TAP	107	288	3
TAP	108	0	2
TAP	108	0	5
BST	108	96	1
SLR	108	96	1	96	672	0
BST	108	96	6
SLL	108	96	6	96	672	7

T_REC_TAP	264
T_REC_BRK	6
T_REC_XTP	28
T_REC_HLD	22
T_REC_XHO	8
T_REC_STR	10
T_REC_BST	2
T_REC_XST	2
T_REC_TTP	47
T_REC_THO	4
T_REC_SLD	14
T_REC_ALL	407
T_NUM_TAP	351
T_NUM_BRK	8
T_NUM_HLD	34
T_NUM_SLD	14
T_NUM_ALL	407
T_JUDGE_TAP	359
T_JUDGE_HLD	124
T_JUDGE_SLD	14
T_JUDGE_ALL	497
TTM_EACHPAIRS	116
TTM_SCR_TAP	175500
TTM_SCR_BRK	20800
TTM_SCR_HLD	34000
TTM_SCR_SLD	21000
TTM_SCR_ALL	251300
TTM_SCR_S	243000
TTM_SCR_SS	250500
TTM_RAT_ACV	10031

