VERSION	0.00.00	1.03.00
FES_MODE	0
BPM_DEF	 95.500	191.000	191.000	 61.000
MET_DEF	4	4
RESOLUTION	384
CLK_DEF	384
COMPATIBLE_CODE	MA2

BPM	0	0	 95.500
BPM	8	96	 87.000
BPM	8	288	 78.000
BPM	9	96	 69.000
BPM	9	288	 61.000
BPM	10	0	 63.000
BPM	10	96	191.000
MET	0	0	4	4
CLK	0	0
CLK	0	96
CLK	0	192
CLK	0	288

TAP	6	0	3
TAP	7	0	3
TAP	8	0	4
XHO	9	0	4	444
TAP	11	0	3
TAP	11	192	3
TAP	12	0	3
TAP	13	0	2
TAP	13	192	2
TAP	14	0	2
HLD	15	0	1	384
HLD	17	0	1	384
TAP	19	0	0
TAP	19	192	0
TAP	20	0	0
TAP	21	0	7
TAP	21	192	7
TAP	22	0	7
HLD	23	0	6	384
HLD	25	0	6	384
TAP	27	0	5
TAP	28	0	5
TAP	29	0	4
TAP	30	0	4
TAP	31	0	3
TAP	32	0	3
TAP	33	0	3
TAP	33	0	4
BRK	34	0	3
BRK	34	0	4
TAP	35	0	5
TAP	36	0	5
TAP	37	0	6
TAP	38	0	6
TAP	39	0	7
TAP	40	0	7
TAP	41	0	0
TAP	41	0	7
BRK	42	0	0
BRK	42	0	7
TTP	43	0	0	B	0	L1
TTP	44	0	7	B	0	L1
TTP	45	0	6	B	0	L1
TTP	46	0	5	B	0	L1
TTP	47	0	4	B	0	L1
TTP	48	0	3	B	0	L1
TTP	49	0	2	B	0	L1
TTP	50	0	1	B	0	L1
TTP	51	0	0	B	0	L1
TTP	51	0	7	B	0	L1
TTP	52	0	1	B	0	L1
TTP	53	0	2	B	0	L1
TTP	54	0	3	B	0	L1
TTP	55	0	4	B	0	L1
TTP	56	0	5	B	0	L1
TTP	57	0	6	B	0	L1
TTP	58	0	0	B	0	L1
TTP	58	0	7	B	0	L1
TAP	59	0	0
TAP	59	192	0
TAP	60	0	0
TAP	61	0	1
TAP	61	192	1
TAP	62	0	1
TAP	63	0	2
TAP	63	192	2
TAP	64	0	2
TAP	65	0	3
TAP	65	192	3
XTP	66	0	3
TTP	67	0	4	B	0	L1
TTP	68	0	3	B	0	L1
TTP	69	0	5	B	0	L1
TTP	70	0	2	B	0	L1
TTP	71	0	3	B	0	L1
TTP	71	0	4	B	0	L1
TTP	72	0	2	B	0	L1
TTP	72	0	5	B	0	L1
THO	73	0	0	384	C	1	L1
TAP	76	0	0
TAP	76	96	0
TAP	76	192	0
TAP	77	0	7
TAP	77	96	7
TAP	77	192	7
TAP	78	0	6
TAP	78	96	6
TAP	78	192	6
TAP	79	0	5
TAP	79	96	5
TAP	79	192	5
HLD	80	0	4	192
HLD	81	0	3	192
TAP	82	0	4
TAP	82	0	5
TAP	82	192	4
TAP	82	192	5
XTP	83	0	4
XTP	83	0	5
TAP	84	0	4
TAP	84	96	4
TAP	84	192	4
TAP	85	0	3
TAP	85	96	3
TAP	85	192	3
TAP	86	0	2
TAP	86	96	2
TAP	86	192	2
TAP	87	0	1
TAP	87	96	1
TAP	87	192	1
HLD	88	0	0	192
HLD	89	0	7	192
TAP	90	0	0
TAP	90	0	1
TAP	90	192	0
TAP	90	192	1
XTP	91	0	0
XTP	91	0	1
TAP	92	0	1
TAP	92	96	1
TAP	92	192	1
TAP	93	0	2
TAP	93	96	2
TAP	93	192	2
TAP	94	0	3
TAP	94	96	3
TAP	94	192	3
TAP	95	0	4
TAP	95	96	4
TAP	95	192	4
HLD	96	0	5	192
HLD	97	0	6	192
STR	98	0	7
SI_	98	0	7	96	288	3
TAP	100	0	2
TAP	100	96	2
TAP	100	192	2
TAP	101	0	1
TAP	101	96	1
TAP	101	192	1
TAP	102	0	0
TAP	102	96	0
TAP	102	192	0
TAP	103	0	7
TAP	103	96	7
TAP	103	192	7
HLD	104	0	0	192
HLD	105	0	7	192
STR	106	0	0
SI_	106	0	0	96	288	4
XHO	108	96	3	768
XHO	108	96	4	768

T_REC_TAP	98
T_REC_BRK	4
T_REC_XTP	5
T_REC_HLD	12
T_REC_XHO	3
T_REC_STR	2
T_REC_BST	0
T_REC_XST	0
T_REC_TTP	26
T_REC_THO	1
T_REC_SLD	2
T_REC_ALL	153
T_NUM_TAP	131
T_NUM_BRK	4
T_NUM_HLD	16
T_NUM_SLD	2
T_NUM_ALL	153
T_JUDGE_TAP	135
T_JUDGE_HLD	123
T_JUDGE_SLD	2
T_JUDGE_ALL	260
TTM_EACHPAIRS	11
TTM_SCR_TAP	65500
TTM_SCR_BRK	10400
TTM_SCR_HLD	16000
TTM_SCR_SLD	3000
TTM_SCR_ALL	94900
TTM_SCR_S	91700
TTM_SCR_SS	94500
TTM_RAT_ACV	10042

