VERSION	0.00.00	1.03.00
FES_MODE	0
BPM_DEF	200.000	200.000	200.000	200.000
MET_DEF	4	4
RESOLUTION	384
CLK_DEF	384
COMPATIBLE_CODE	MA2

BPM	0	0	200.000
MET	0	0	4	4
CLK	0	0
CLK	0	96
CLK	0	192
CLK	0	288

HLD	1	0	5	384
TAP	2	192	4
HLD	3	0	2	384
TAP	4	192	3
HLD	5	0	4	384
HLD	6	0	3	384
TAP	7	0	5
TAP	7	192	2
TAP	8	0	4
TAP	8	96	3
STR	8	192	1
SI_	8	192	1	96	48	4
STR	8	192	6
SI_	8	192	6	96	48	3
BRK	8	288	1
BRK	8	288	6
XTP	9	0	0
XTP	9	0	7
TAP	9	96	3
TAP	9	96	5
TAP	9	192	2
TAP	9	216	3
TAP	9	240	2
TAP	9	288	1
TAP	9	288	4
TAP	10	0	3
TAP	10	0	5
TAP	10	96	5
TAP	10	120	4
TAP	10	144	6
TAP	10	192	0
TAP	10	240	0
TAP	10	288	2
TAP	10	288	6
STR	11	0	1
SCR	11	0	1	96	48	4
TTP	11	96	0	C	0	M1
TTP	11	96	3	B	0	M1
STR	11	192	6
SCL	11	192	6	96	48	3
TTP	11	288	0	C	0	M1
TTP	11	288	4	B	0	M1
TAP	12	0	0
TAP	12	48	0
TAP	12	96	2
TAP	12	120	3
TAP	12	144	2
TAP	12	192	5
TAP	12	216	4
TAP	12	240	5
TAP	12	288	2
TAP	12	312	3
TAP	12	336	1
XTP	13	0	0
XTP	13	0	7
TAP	13	96	2
TAP	13	96	4
TAP	13	192	5
TAP	13	216	4
TAP	13	240	5
TAP	13	288	3
TAP	13	288	6
TAP	14	0	2
TAP	14	0	4
TAP	14	96	2
TAP	14	120	3
TAP	14	144	1
TAP	14	192	7
TAP	14	240	7
TAP	14	288	1
TAP	14	288	5
STR	15	0	6
SCL	15	0	6	96	48	3
TTP	15	96	0	C	0	M1
TTP	15	96	4	B	0	M1
STR	15	192	1
SCR	15	192	1	96	48	4
TTP	15	288	0	C	0	M1
TTP	15	288	3	B	0	M1
TAP	16	0	6
TAP	16	48	6
TAP	16	96	5
TAP	16	120	4
TAP	16	144	5
TAP	16	192	2
TAP	16	216	3
TAP	16	240	2
BRK	16	288	1
BRK	16	288	6
TAP	17	0	5
TAP	17	48	3
TAP	17	96	5
TAP	17	144	4
TAP	17	192	5
TAP	17	288	5
TAP	17	336	3
TAP	18	0	5
TAP	18	96	5
TAP	18	144	3
TAP	18	192	5
TAP	18	240	4
TAP	18	288	5
TAP	18	336	3
HLD	19	0	5	96
TTP	19	96	3	B	0	M1
HLD	19	192	5	96
TTP	19	288	2	B	0	M1
HLD	20	0	6	96
TTP	20	96	1	B	0	M1
STR	20	192	7
SI_	20	192	7	96	48	4
TAP	20	240	3
TAP	20	288	3
XTP	21	0	2
TAP	21	48	4
TAP	21	96	2
XTP	21	144	3
TAP	21	192	2
TAP	21	288	2
TAP	21	336	4
TAP	22	0	2
TAP	22	96	2
TAP	22	144	4
TAP	22	192	2
TAP	22	240	3
TAP	22	288	2
TAP	22	336	4
TAP	23	0	2
XTP	23	96	1
XTP	23	96	6
TAP	23	192	3
TAP	23	192	4
TAP	23	240	3
TAP	23	240	4
STR	23	336	6
SCL	23	336	6	96	48	3
TAP	24	48	1
TAP	24	96	0
TAP	24	144	7
XHO	24	240	1	48
XHO	24	240	6	48
TAP	25	0	4
TAP	25	0	5
TAP	25	96	3
TAP	25	144	2
HLD	25	192	1	192
TAP	25	288	3
TAP	25	336	4
HLD	26	0	5	192
TAP	26	96	4
TAP	26	144	3
HLD	26	192	2	192
TAP	26	288	4
TAP	26	336	5
STR	27	0	6
SI_	27	0	6	96	48	4
TTP	27	96	3	B	0	M1
STR	27	192	6
SI_	27	192	6	96	48	4
TTP	27	288	2	B	0	M1
STR	28	0	6
SI_	28	0	6	96	48	3
TTP	28	96	1	B	0	M1
STR	28	192	6
SI_	28	192	6	96	48	3
TTP	28	288	0	B	0	M1
TAP	29	0	1
TAP	29	96	4
TAP	29	144	5
HLD	29	192	6	192
TAP	29	288	4
TAP	29	336	3
HLD	30	0	2	192
TAP	30	96	3
TAP	30	144	4
HLD	30	192	5	192
TAP	30	288	3
TAP	30	336	2
STR	31	0	1
SI_	31	0	1	96	48	3
TAP	31	96	6
STR	31	192	1
SI_	31	192	1	96	48	3
TAP	31	288	7
HLD	31	336	7	96
TAP	32	48	0
TAP	32	96	7
STR	32	144	1
SI_	32	144	1	96	48	4
STR	32	144	6
SI_	32	144	6	96	48	3
XTP	32	240	1
XTP	32	240	6
XHO	33	0	2	96
XHO	33	0	3	96
TAP	33	144	2
TAP	33	144	3
TAP	33	336	6
STR	34	0	6
SCL	34	0	6	96	48	4
TAP	34	96	3
TAP	34	192	2
TAP	34	240	3
TAP	34	288	1
TAP	34	288	4
HLD	35	0	4	96
HLD	35	0	5	96
TAP	35	144	4
TAP	35	144	5
HLD	35	336	1	96
TAP	36	48	3
TAP	36	96	3
TAP	36	192	5
TAP	36	240	4
TAP	36	288	3
TAP	36	288	6
HLD	37	0	1	96
HLD	37	0	3	96
TAP	37	144	1
TAP	37	144	3
TAP	37	336	6
STR	38	0	6
SCL	38	0	6	96	48	3
TAP	38	96	2
STR	38	192	1
SCR	38	192	1	96	48	4
TAP	38	288	5
HLD	39	0	5	288
TAP	39	144	3
HLD	39	192	2	96
TAP	40	0	1
TAP	40	0	4
TAP	40	96	2
TAP	40	96	5
STR	40	192	0
SI_	40	192	0	96	48	4
STR	40	192	7
SI_	40	192	7	96	48	3
XTP	40	288	0
XTP	40	288	7
XTP	41	0	2
XTP	41	0	6
TAP	41	96	1
TAP	41	96	5
STR	41	144	1
SCR	41	144	1	96	48	4
STR	41	144	5
SCR	41	144	5	96	48	0
XTP	41	240	1
XTP	41	240	5
XST	41	336	0
SI_	41	336	0	96	48	5
XST	41	336	4
SI_	41	336	4	96	48	1
XTP	42	48	0
XTP	42	48	4
XTP	42	144	0
XTP	42	144	7
TAP	42	240	1
TAP	42	288	3
TAP	42	336	4
TAP	43	0	6
TAP	43	96	3
TAP	43	96	7
STR	43	144	3
SI_	43	144	3	96	48	0
STR	43	144	7
SI_	43	144	7	96	48	4
XTP	43	240	3
XTP	43	240	7
XTP	43	336	2
XTP	43	336	6
TAP	44	48	1
STR	44	96	0
SI_	44	96	0	96	48	3
STR	44	96	1
SI_	44	96	1	96	48	4
HLD	44	288	5	96
TAP	44	336	4
XST	45	0	3
SCL	45	0	3	96	48	0
STR	45	96	7
SI_	45	96	7	96	48	3
TAP	45	144	6
XTP	45	192	5
HLD	45	288	2	96
TAP	45	336	3
XST	46	0	4
SCR	46	0	4	96	48	7
STR	46	96	0
SI_	46	96	0	96	48	4
TAP	46	144	1
XTP	46	192	2
TAP	46	288	3
TAP	46	288	5
STR	47	0	6
SCL	47	0	6	96	48	3
TAP	47	0	7
TAP	47	96	0
TAP	47	144	0
TAP	47	240	0
STR	47	240	1
SCR	47	240	1	96	48	4
TAP	47	336	6
TAP	48	48	6
TAP	48	96	3
STR	48	96	5
SCR	48	96	5	96	96	3
XTP	48	192	0
XTP	49	0	0
XTP	49	0	4
TAP	49	96	2
TAP	49	96	6
STR	49	144	2
SCL	49	144	2	96	48	7
STR	49	144	6
SCL	49	144	6	96	48	3
XTP	49	240	2
XTP	49	240	6
XST	49	336	3
SI_	49	336	3	96	48	6
XST	49	336	7
SI_	49	336	7	96	48	2
XTP	50	48	3
XTP	50	48	7
XTP	50	144	0
XTP	50	144	7
TAP	50	240	6
TAP	50	288	4
TAP	50	336	3
XTP	51	0	1
TTP	51	96	0	B	0	M1
TTP	51	96	1	E	0	M1
TTP	51	96	7	E	0	M1
TTP	51	96	7	B	0	M1
XTP	51	192	4
TTP	51	288	0	B	0	M1
TTP	51	288	1	E	0	M1
TTP	51	288	7	B	0	M1
TTP	51	288	7	E	0	M1
XTP	52	0	2
XTP	52	0	3
TAP	52	48	6
XTP	52	96	4
XTP	52	96	5
TAP	52	144	1
BRK	52	192	0
BRK	52	192	7
HLD	52	288	2	96
TAP	52	336	3
XST	53	0	4
SCR	53	0	4	96	48	7
STR	53	96	0
SI_	53	96	0	96	48	4
TAP	53	144	1
XTP	53	192	2
HLD	53	288	5	96
TAP	53	336	4
XST	54	0	3
SCL	54	0	3	96	48	0
STR	54	96	7
SI_	54	96	7	96	48	3
TAP	54	144	6
XTP	54	192	5
TAP	54	288	2
TAP	54	288	4
BST	55	0	0
SUL	55	0	0	96	48	4
BST	55	0	1
SUL	55	0	1	96	48	4
BST	55	192	6
SUR	55	192	6	96	48	3
BST	55	192	7
SUR	55	192	7	96	48	3
XST	56	0	1
SI_	56	0	1	96	48	4
XST	56	0	5
SI_	56	0	5	96	48	0
XTP	56	96	1
XTP	56	96	5
BRK	56	192	2
BRK	56	192	6
HLD	57	0	5	384
TAP	57	192	4
TAP	57	288	3
HLD	58	0	2	192
TAP	58	96	3
TAP	58	192	3
HLD	59	0	2	384
TAP	59	192	3
TAP	59	288	4
HLD	60	0	5	192
TAP	60	96	4
TAP	60	192	4
TAP	61	0	4
TAP	61	96	3
TAP	61	192	2
TAP	61	288	2
TAP	61	288	3
TAP	62	0	3
TAP	62	96	4
TAP	62	192	5
TAP	62	288	4
TAP	62	288	5
HLD	63	0	6	384
TTP	63	96	4	B	0	M1
TTP	63	192	3	B	0	M1
TTP	63	288	3	E	0	M1
HLD	64	0	1	384
TTP	64	96	3	B	0	M1
TTP	64	192	4	B	0	M1
TTP	64	288	5	E	0	M1
TAP	65	0	6
TAP	65	96	5
TAP	65	192	4
TAP	65	288	4
TAP	65	288	5
TAP	66	0	1
TAP	66	96	2
TAP	66	192	3
TAP	66	288	2
TAP	66	288	3
HLD	67	0	5	192
TTP	67	96	0	B	0	M1
HLD	67	192	2	192
TTP	67	288	7	B	0	M1
TAP	68	0	6
TAP	68	96	4
TAP	68	96	6
TAP	68	192	3
TAP	68	192	5
TAP	68	288	2
TAP	68	288	4
XHO	69	0	1	576
XST	69	0	3
SCL	69	0	3	96	480	5
TAP	70	288	3
HLD	70	336	3	192
TAP	71	96	4
HLD	71	144	4	96
HLD	71	240	5	96
TAP	71	336	6
TAP	72	96	4
TAP	72	96	6
TAP	72	192	3
TAP	72	192	5
TAP	72	288	2
TAP	72	288	4
STR	73	0	1
SCR	73	0	1	96	48	4
TAP	73	0	3
TAP	73	96	5
STR	73	192	6
SCL	73	192	6	96	48	3
TAP	73	288	2
HLD	73	336	2	144
TAP	74	96	4
HLD	74	192	5	96
TAP	74	288	3
STR	75	0	1
SI_	75	0	1	96	48	4
STR	75	96	6
SI_	75	96	6	96	48	3
STR	75	192	2
SI_	75	192	2	96	48	7
STR	75	288	6
SI_	75	288	6	96	48	2
STR	76	0	3
SI_	76	0	3	96	48	0
STR	76	96	5
SI_	76	96	5	96	48	2
STR	76	192	1
SI_	76	192	1	96	48	5
TAP	76	288	7
TTP	77	0	0	B	0	M1
TTP	77	0	0	C	1	M1
TTP	77	0	1	B	0	M1
TTP	77	0	6	B	0	M1
TTP	77	0	7	B	0	M1
HLD	81	0	2	384
TAP	81	96	3
TAP	81	288	3
HLD	82	0	4	384
TAP	82	96	3
TAP	82	288	3
HLD	83	0	3	384
TAP	83	96	4
TAP	83	288	4
TAP	84	0	5
TAP	84	96	5
TAP	84	192	4
TAP	84	192	5
STR	85	0	4
SCL	85	0	4	96	144	1
TAP	85	0	5
TAP	85	96	5
TAP	85	192	5
TAP	85	288	5
STR	86	0	1
SUL	86	0	1	96	144	4
TAP	86	0	5
TAP	86	96	5
TAP	86	192	5
TAP	86	288	5
TAP	87	0	2
STR	87	0	3
SCR	87	0	3	96	144	6
TAP	87	96	2
TAP	87	192	2
TAP	87	288	2
TAP	88	0	4
TAP	88	0	5
TAP	88	96	2
TAP	88	96	3
TAP	88	192	1
TAP	88	192	6
TAP	89	0	1
STR	89	0	4
SCR	89	0	4	96	144	7
TAP	89	96	1
TAP	89	192	2
TAP	89	288	2
STR	90	0	3
SCL	90	0	3	96	144	0
TAP	90	0	6
TAP	90	96	6
TAP	90	192	5
TAP	90	288	5
STR	91	0	4
SCR	91	0	4	96	192	0
TTP	91	192	0	C	1	M1
TTP	91	192	3	B	0	M1
TTP	91	192	4	B	0	M1
BRK	92	0	7
BRK	92	96	7
BRK	92	192	1
BRK	92	192	6
XTP	93	0	3
XTP	93	0	7
TAP	93	96	1
TAP	93	96	5
STR	93	144	1
SV_	93	144	1	96	48	4
STR	93	144	5
SV_	93	144	5	96	48	0
XTP	93	240	1
XTP	93	240	5
XST	93	336	3
SI_	93	336	3	96	48	0
XST	93	336	7
SI_	93	336	7	96	48	4
XTP	94	48	3
XTP	94	48	7
XTP	94	144	1
XTP	94	144	5
TAP	94	240	6
TAP	94	288	4
TAP	94	336	3
TAP	95	0	1
TAP	95	96	0
TAP	95	96	4
STR	95	144	0
SI_	95	144	0	96	48	3
STR	95	144	4
SI_	95	144	4	96	48	7
XTP	95	240	0
XTP	95	240	4
XTP	95	336	1
XTP	95	336	5
TAP	96	48	6
STR	96	96	6
SI_	96	96	6	96	48	3
STR	96	96	7
SI_	96	96	7	96	48	4
XTP	96	192	6
XTP	96	192	7
HLD	96	288	2	96
TAP	96	336	3
XST	97	0	4
SCR	97	0	4	96	48	7
STR	97	96	0
SI_	97	96	0	96	48	4
TAP	97	144	1
XTP	97	192	0
XTP	97	192	2
HLD	97	288	5	96
TAP	97	336	4
XST	98	0	3
SCL	98	0	3	96	48	0
STR	98	96	7
SI_	98	96	7	96	48	3
TAP	98	144	6
XTP	98	192	5
XTP	98	192	7
TAP	98	288	4
STR	99	0	2
SCL	99	0	2	96	48	7
TAP	99	0	3
TAP	99	96	4
TAP	99	144	4
TAP	99	240	4
STR	99	240	5
SCR	99	240	5	96	48	0
TAP	99	336	3
TAP	100	48	2
STR	100	96	2
SCL	100	96	2	96	96	4
TAP	100	96	3
BRK	100	192	7
XTP	101	0	0
XTP	101	0	4
TAP	101	96	2
TAP	101	96	6
STR	101	144	2
SV_	101	144	2	96	48	7
STR	101	144	6
SV_	101	144	6	96	48	3
XTP	101	240	2
XTP	101	240	6
XST	101	336	0
SI_	101	336	0	96	48	3
XST	101	336	4
SI_	101	336	4	96	48	7
XTP	102	48	0
XTP	102	48	4
XTP	102	144	2
XTP	102	144	6
TAP	102	240	1
TAP	102	288	3
TAP	102	336	4
XTP	103	0	6
TTP	103	96	2	B	0	M1
TTP	103	96	2	E	0	M1
TTP	103	96	3	B	0	M1
TTP	103	96	4	E	0	M1
XTP	103	192	1
TTP	103	288	4	B	0	M1
TTP	103	288	4	E	0	M1
TTP	103	288	5	B	0	M1
TTP	103	288	6	E	0	M1
XST	104	0	1
SI_	104	0	1	96	48	4
XST	104	0	6
SI_	104	0	6	96	48	3
XTP	104	48	0
XTP	104	48	7
XTP	104	96	1
XTP	104	96	6
BRK	104	192	0
BRK	104	192	7
HLD	104	288	5	96
TAP	104	336	4
XST	105	0	3
SCL	105	0	3	96	48	0
STR	105	96	7
SI_	105	96	7	96	48	3
TAP	105	144	6
XTP	105	192	5
XTP	105	192	7
HLD	105	288	2	96
TAP	105	336	3
XST	106	0	4
SCR	106	0	4	96	48	7
STR	106	96	0
SI_	106	96	0	96	48	4
TAP	106	144	1
XTP	106	192	0
XTP	106	192	2
TAP	106	288	3
BST	107	0	6
SI_	107	0	6	96	48	4
BST	107	0	7
SI_	107	0	7	96	48	3
BST	107	192	0
SI_	107	192	0	96	48	2
BST	107	192	7
SI_	107	192	7	96	48	3
XST	108	0	1
SI_	108	0	1	96	48	4
TAP	108	48	1
XST	108	96	5
SI_	108	96	5	96	48	0
TAP	108	144	5
TTP	108	192	0	C	1	M1
BST	109	0	0
SI_	109	0	0	96	48	4
BST	109	0	1
SI_	109	0	1	96	48	3
BST	109	192	0
SI_	109	192	0	96	48	4
BST	109	192	7
SI_	109	192	7	96	48	5
XST	110	0	6
SI_	110	0	6	96	48	3
TAP	110	48	6
XST	110	96	2
SI_	110	96	2	96	48	7
TAP	110	144	2
TTP	110	192	0	C	1	M1
XTP	111	0	0
XTP	111	0	7
TAP	111	48	6
TAP	111	96	3
TAP	111	96	5
TAP	111	192	2
TAP	111	216	3
TAP	111	240	2
TAP	111	288	0
TAP	111	288	1
TAP	112	0	2
TAP	112	0	4
TAP	112	96	5
TAP	112	120	4
TAP	112	144	6
TAP	112	192	0
TAP	112	240	0
TAP	112	288	1
TAP	112	288	7
STR	113	0	2
SCL	113	0	2	96	48	7
TTP	113	96	0	C	0	M1
TTP	113	96	3	B	0	M1
STR	113	192	5
SCR	113	192	5	96	48	0
TTP	113	288	0	C	0	M1
TTP	113	288	4	B	0	M1
TAP	114	0	1
TAP	114	48	1
TAP	114	96	6
TAP	114	120	7
TAP	114	144	6
TAP	114	192	1
TAP	114	216	0
TAP	114	240	1
TAP	114	288	5
TAP	114	312	4
TAP	114	336	6
XTP	115	0	0
XTP	115	0	7
TAP	115	48	1
TAP	115	96	2
TAP	115	96	4
TAP	115	192	5
TAP	115	216	4
TAP	115	240	5
TAP	115	288	6
TAP	115	288	7
TAP	116	0	3
TAP	116	0	5
TAP	116	96	2
TAP	116	120	3
TAP	116	144	1
TAP	116	192	7
TAP	116	240	7
TAP	116	288	0
TAP	116	288	6
STR	117	0	5
SCR	117	0	5	96	48	0
TTP	117	96	0	C	0	M1
TTP	117	96	4	B	0	M1
STR	117	192	2
SCL	117	192	2	96	48	7
TTP	117	288	0	C	0	M1
TTP	117	288	3	B	0	M1
TAP	118	0	6
TAP	118	48	6
TAP	118	96	1
TAP	118	120	0
TAP	118	144	1
TAP	118	192	6
TAP	118	216	7
TAP	118	240	6
BRK	118	288	1
BRK	118	288	6
XTP	119	0	4
XTP	119	0	5
TAP	119	48	3
TAP	119	96	2
TAP	119	96	4
TAP	119	192	1
TAP	119	216	0
STR	119	240	1
SI_	119	240	1	96	48	4
TAP	119	288	7
TAP	119	336	6
XTP	120	0	5
TAP	120	96	6
TAP	120	120	7
TAP	120	144	6
TAP	120	192	4
TAP	120	240	3
TAP	120	288	2
TAP	120	288	5
XST	121	0	0
SCL	121	0	0	96	48	5
XTP	121	0	1
TTP	121	96	3	B	0	M1
TTP	121	96	4	B	0	M1
XST	121	192	1
SCR	121	192	1	96	48	4
TTP	121	288	5	B	0	M1
TTP	121	288	6	B	0	M1
TAP	122	0	7
TAP	122	48	7
TAP	122	96	1
TAP	122	120	0
TAP	122	144	2
TAP	122	192	5
TAP	122	216	4
TAP	122	240	6
BRK	122	288	3
BRK	122	288	7
XTP	123	0	2
XTP	123	0	3
TAP	123	48	4
TAP	123	96	3
TAP	123	96	5
TAP	123	192	6
TAP	123	216	7
STR	123	240	6
SI_	123	240	6	96	48	3
TAP	123	288	0
TAP	123	336	1
XTP	124	0	2
TAP	124	96	1
TAP	124	120	0
TAP	124	144	1
TAP	124	192	3
TAP	124	240	4
TAP	124	288	2
TAP	124	288	5
XTP	125	0	6
XST	125	0	7
SCR	125	0	7	96	48	2
TTP	125	96	3	B	0	M1
TTP	125	96	4	B	0	M1
XST	125	192	6
SCL	125	192	6	96	48	3
TTP	125	288	1	B	0	M1
TTP	125	288	2	B	0	M1
TAP	126	0	0
TAP	126	48	0
TAP	126	96	6
TAP	126	120	7
TAP	126	144	5
XTP	126	192	3
XTP	126	192	4
XTP	126	240	3
XTP	126	240	4
XTP	126	288	1
XTP	126	288	6
XST	126	336	1
SCL	126	336	1	96	384	4
XHO	126	336	6	480

T_REC_TAP	392
T_REC_BRK	19
T_REC_XTP	99
T_REC_HLD	45
T_REC_XHO	6
T_REC_STR	72
T_REC_BST	12
T_REC_XST	30
T_REC_TTP	65
T_REC_THO	0
T_REC_SLD	114
T_REC_ALL	854
T_NUM_TAP	658
T_NUM_BRK	31
T_NUM_HLD	51
T_NUM_SLD	114
T_NUM_ALL	854
T_JUDGE_TAP	689
T_JUDGE_HLD	211
T_JUDGE_SLD	114
T_JUDGE_ALL	1014
TTM_EACHPAIRS	145
TTM_SCR_TAP	329000
TTM_SCR_BRK	80600
TTM_SCR_HLD	51000
TTM_SCR_SLD	171000
TTM_SCR_ALL	631600
TTM_SCR_S	609650
TTM_SCR_SS	628500
TTM_RAT_ACV	10049

