VERSION	0.00.00	1.03.00
FES_MODE	0
BPM_DEF	200.000	200.000	200.000	200.000
MET_DEF	4	4
RESOLUTION	384
CLK_DEF	384
COMPATIBLE_CODE	MA2

BPM	0	0	200.000
MET	0	0	4	4
CLK	0	0
CLK	0	96
CLK	0	192
CLK	0	288

TTP	1	0	4	B	0	M1
TTP	2	0	6	B	0	M1
TTP	3	0	0	B	0	M1
TTP	4	0	2	B	0	M1
TTP	5	0	4	B	0	M1
TTP	5	192	1	E	0	M1
TTP	5	192	7	B	0	M1
TTP	6	0	3	B	0	M1
TTP	6	192	0	B	0	M1
TTP	6	192	7	E	0	M1
TTP	7	0	4	E	0	M1
TTP	7	96	3	E	0	M1
TTP	7	96	5	E	0	M1
TTP	7	192	2	E	0	M1
TTP	7	192	6	E	0	M1
TTP	7	288	1	E	0	M1
TTP	7	288	7	E	0	M1
TTP	8	0	0	E	0	M1
TTP	8	96	0	C	0	M1
TTP	8	192	4	E	0	M1
BRK	8	288	0
BRK	8	288	7
TAP	9	0	2
TAP	9	0	3
TAP	9	96	3
TAP	9	96	4
TAP	9	192	4
HLD	9	192	5	96
TAP	9	288	7
TAP	10	0	4
TAP	10	0	6
TAP	10	96	3
TAP	10	96	4
HLD	10	192	2	96
TAP	10	192	3
TAP	10	288	0
HLD	11	0	1	96
TAP	11	96	3
HLD	11	192	0	96
TAP	11	288	2
TAP	12	0	2
TAP	12	0	3
TAP	12	96	0
TAP	12	96	1
TAP	12	192	6
TAP	12	192	7
TAP	12	288	4
TAP	12	288	5
TAP	13	0	4
TAP	13	0	6
TAP	13	96	3
TAP	13	96	4
HLD	13	192	2	96
TAP	13	192	3
TAP	13	288	0
TAP	14	0	1
TAP	14	0	3
TAP	14	96	3
TAP	14	96	4
TAP	14	192	4
HLD	14	192	5	96
TAP	14	288	7
HLD	15	0	6	96
TAP	15	96	4
HLD	15	192	7	96
TAP	15	288	5
TAP	16	0	4
TAP	16	0	5
TAP	16	96	6
TAP	16	96	7
TAP	16	192	0
TAP	16	192	1
TAP	16	288	2
TAP	16	288	3
TAP	17	0	2
TAP	17	96	2
TAP	17	96	3
TAP	17	192	2
TAP	17	288	2
TAP	17	288	4
TAP	18	0	2
TAP	18	96	2
TAP	18	96	3
TAP	18	192	2
TAP	18	288	2
TAP	18	288	4
TAP	19	0	2
TAP	19	96	3
TAP	19	192	4
TAP	19	288	5
TAP	20	0	5
TAP	20	96	4
TAP	20	96	5
XTP	20	192	3
XTP	20	192	6
XTP	20	288	4
TAP	21	0	5
HLD	21	96	4	48
TAP	21	96	5
TAP	21	192	5
TAP	21	288	4
TAP	21	288	5
TAP	22	0	5
TAP	22	96	3
TAP	22	96	5
TAP	22	192	5
TAP	22	288	2
TAP	22	288	5
TAP	23	0	3
TAP	23	0	5
TAP	23	96	2
TAP	23	192	1
TAP	23	288	0
TAP	23	288	7
STR	23	336	0
SI_	23	336	0	96	96	4
STR	23	336	7
SI_	23	336	7	96	96	3
XTP	24	240	1
XTP	24	240	6
BRK	24	288	1
BRK	24	288	6
TAP	25	0	3
TAP	25	0	4
TAP	25	96	2
TAP	25	96	5
STR	25	192	1
SI_	25	192	1	96	96	4
STR	26	0	7
SI_	26	0	7	96	96	4
STR	26	192	1
SI_	26	192	1	96	48	3
HLD	27	0	5	288
TAP	27	96	2
TAP	27	192	3
TAP	27	288	1
HLD	28	0	2	288
TAP	28	96	5
TAP	28	192	4
TAP	28	288	6
TAP	29	0	3
HLD	29	0	5	96
TAP	29	96	4
STR	29	192	6
SI_	29	192	6	96	96	3
STR	30	0	0
SI_	30	0	0	96	96	3
STR	30	192	6
SI_	30	192	6	96	48	4
HLD	31	0	2	288
TAP	31	96	5
TAP	31	192	4
TAP	31	288	6
STR	31	336	6
SCL	31	336	6	96	192	1
XTP	33	0	3
XTP	33	0	4
XTP	33	144	3
HLD	33	144	4	528
TTP	34	0	3	E	0	M1
TTP	34	96	0	C	0	M1
TTP	34	192	1	E	0	M1
TTP	34	288	2	E	0	M1
XTP	35	0	3
XTP	35	0	4
HLD	35	144	3	528
XTP	35	144	4
TTP	36	0	5	E	0	M1
TTP	36	96	0	C	0	M1
TTP	36	192	7	E	0	M1
TTP	36	288	6	E	0	M1
XTP	37	0	3
XTP	37	0	4
XTP	37	144	3
XTP	37	144	4
TTP	38	0	3	E	0	M1
TTP	38	0	5	E	0	M1
TTP	38	96	2	B	0	M1
TTP	38	96	5	B	0	M1
TTP	38	192	1	B	0	M1
TTP	38	192	6	B	0	M1
TTP	38	288	1	E	0	M1
TTP	38	288	7	E	0	M1
THO	39	0	0	384	C	1	M1
BRK	40	192	0
BRK	40	192	7
XTP	40	288	1
XTP	40	288	6
TAP	41	0	3
TAP	41	0	4
TAP	41	96	1
TAP	41	96	5
HLD	41	144	1	96
TAP	41	144	5
HLD	41	240	3	96
STR	41	336	4
SI_	41	336	4	96	48	0
XTP	42	48	7
HLD	42	144	6	96
TAP	42	240	5
TAP	42	288	5
TAP	43	0	1
TAP	43	0	3
TAP	43	96	0
TAP	43	96	7
TAP	43	144	0
STR	43	144	7
SI_	43	144	7	96	48	3
TAP	43	240	2
HLD	43	336	1	96
TAP	44	48	2
TAP	44	96	2
BRK	44	192	3
BRK	44	192	7
TAP	44	288	2
TAP	45	0	1
TAP	45	0	4
TAP	45	96	7
TAP	45	192	0
TAP	45	192	6
TAP	45	288	5
TAP	46	0	3
TAP	46	0	6
TAP	46	96	0
TAP	46	192	1
TAP	46	192	7
TAP	46	288	2
TAP	46	288	5
TAP	47	0	0
TAP	47	0	7
TAP	47	96	2
TAP	47	96	3
TAP	47	144	2
TAP	47	144	3
TAP	47	240	4
TAP	47	240	6
TAP	47	336	0
TAP	47	336	7
TAP	48	48	3
TAP	48	48	4
TAP	48	96	3
TAP	48	96	4
BRK	48	192	1
BRK	48	192	6
TAP	49	0	3
TAP	49	0	4
TAP	49	96	2
TAP	49	96	6
TAP	49	144	2
HLD	49	144	6	96
HLD	49	240	4	96
STR	49	336	3
SI_	49	336	3	96	48	7
XTP	50	48	0
HLD	50	144	1	96
TAP	50	240	2
TAP	50	288	2
STR	51	0	4
SI_	51	0	4	96	48	1
TAP	51	0	5
TAP	51	192	4
STR	51	192	5
SI_	51	192	5	96	48	0
TAP	52	0	1
TAP	52	48	1
TAP	52	96	7
BRK	52	192	1
BRK	52	192	6
TAP	52	288	5
TAP	53	0	3
TAP	53	0	6
TAP	53	96	1
TAP	53	192	0
TAP	53	192	7
TAP	53	288	2
TAP	54	0	1
TAP	54	0	4
TAP	54	96	6
TAP	54	192	0
TAP	54	192	7
STR	54	288	1
SI_	54	288	1	96	48	4
STR	55	0	6
SI_	55	0	6	96	48	3
STR	55	96	0
SI_	55	96	0	96	48	3
STR	55	192	7
SI_	55	192	7	96	48	4
STR	55	288	0
SI_	55	288	0	96	48	4
XTP	56	0	7
XTP	56	96	1
XTP	56	96	6
BRK	56	192	1
BRK	56	192	6
STR	57	0	7
SCL	57	0	7	96	480	2
STR	59	0	1
SCL	59	0	1	96	480	4
HLD	61	0	2	576
TAP	61	0	4
TAP	61	96	4
TAP	61	192	3
TAP	61	288	3
TTP	62	0	4	E	0	M1
TTP	62	96	0	C	0	M1
TTP	62	192	0	E	0	M1
TAP	63	0	3
HLD	63	0	5	576
TAP	63	96	3
TAP	63	192	4
TAP	63	288	4
TTP	64	0	4	E	0	M1
TTP	64	96	0	C	0	M1
TTP	64	192	0	E	0	M1
HLD	65	0	2	576
TAP	65	0	4
TAP	65	96	4
TAP	65	192	3
TAP	65	288	3
TTP	66	0	4	E	0	M1
TTP	66	96	0	C	0	M1
TTP	66	192	0	E	0	M1
TAP	67	0	3
HLD	67	0	5	384
TAP	67	96	3
TAP	67	192	4
TAP	67	288	3
STR	68	0	2
SUL	68	0	2	96	144	5
TAP	69	0	5
TAP	69	96	4
TAP	69	192	3
TAP	69	192	4
TAP	69	288	2
TAP	70	0	1
TAP	70	96	0
TAP	70	192	0
TAP	70	192	7
TAP	70	288	6
TAP	71	0	5
TAP	71	96	4
TAP	71	192	3
TAP	71	192	4
TAP	71	288	2
TAP	71	288	5
TAP	72	0	1
TAP	72	0	6
XTP	72	96	0
XTP	72	96	7
XTP	72	192	3
XTP	72	192	6
XTP	72	288	1
XTP	72	288	5
HLD	73	0	7	384
TTP	73	192	0	C	0	M1
HLD	74	0	0	384
TTP	74	192	0	C	0	M1
HLD	75	0	7	384
TTP	75	192	4	E	0	M1
THO	76	0	0	384	C	0	M1
TTP	81	0	2	B	0	M1
TTP	81	0	3	B	0	M1
TTP	81	0	4	B	0	M1
TTP	81	0	5	B	0	M1
TTP	82	0	1	E	0	M1
TTP	82	0	1	B	0	M1
TTP	82	0	6	B	0	M1
TTP	82	0	7	E	0	M1
TTP	83	0	4	E	0	M1
TTP	83	192	0	C	0	M1
TTP	84	0	0	E	0	M1
TTP	84	192	2	E	0	M1
TTP	84	192	6	E	0	M1
HLD	85	0	2	672
TAP	85	0	3
TAP	85	96	3
TAP	85	192	5
TAP	85	288	5
TAP	86	0	7
TAP	86	96	0
TAP	86	192	1
TAP	86	288	3
TAP	87	0	4
HLD	87	0	5	672
TAP	87	96	4
TAP	87	192	2
TAP	87	288	2
TAP	88	0	0
TAP	88	96	7
TAP	88	192	6
TAP	88	288	4
TAP	89	0	6
STR	89	96	7
SCL	89	96	7	96	96	4
TAP	89	288	3
TAP	90	0	1
STR	90	96	0
SCR	90	96	0	96	96	3
THO	91	0	0	192	C	0	M1
XTP	92	0	0
XTP	92	48	0
XTP	92	96	7
XTP	92	144	7
BRK	92	192	1
BRK	92	192	6
TAP	93	0	3
TAP	93	0	4
TAP	93	96	2
TAP	93	96	6
TAP	93	144	2
HLD	93	144	6	96
HLD	93	240	4	96
STR	93	336	2
SI_	93	336	2	96	48	6
XTP	94	48	0
HLD	94	144	1	96
TAP	94	240	2
TAP	94	288	2
TAP	95	0	4
TAP	95	0	6
TAP	95	96	0
TAP	95	96	7
STR	95	144	0
SI_	95	144	0	96	48	3
STR	95	144	7
SI_	95	144	7	96	48	4
HLD	95	336	6	96
TAP	96	48	5
TAP	96	96	5
BRK	96	192	0
BRK	96	192	7
TAP	96	288	2
TAP	96	336	2
TAP	97	0	3
TAP	97	0	6
TAP	97	96	0
TAP	97	144	0
TAP	97	192	1
TAP	97	192	7
TAP	97	288	5
TAP	97	336	5
TAP	98	0	1
TAP	98	0	4
TAP	98	96	7
TAP	98	144	7
TAP	98	192	0
TAP	98	192	6
TAP	98	288	2
TAP	98	288	5
TAP	99	0	0
TAP	99	0	7
TAP	99	96	4
TAP	99	96	5
TAP	99	144	4
TAP	99	144	5
TAP	99	240	1
TAP	99	240	3
TAP	99	336	0
TAP	99	336	7
TAP	100	48	3
TAP	100	48	4
TAP	100	96	3
TAP	100	96	4
BRK	100	192	1
BRK	100	192	6
TAP	101	0	3
TAP	101	0	4
TAP	101	96	1
TAP	101	96	5
HLD	101	144	1	96
TAP	101	144	5
HLD	101	240	3	96
STR	101	336	5
SI_	101	336	5	96	48	1
XTP	102	48	7
HLD	102	144	6	96
TAP	102	240	5
TAP	102	288	5
TAP	103	0	2
STR	103	0	3
SI_	103	0	3	96	48	6
STR	103	192	2
SI_	103	192	2	96	48	7
TAP	103	192	3
TAP	104	0	6
TAP	104	48	6
TAP	104	96	0
BRK	104	192	1
BRK	104	192	6
TAP	104	288	0
TAP	104	336	0
TAP	105	0	1
TAP	105	0	4
TAP	105	96	6
TAP	105	144	6
TAP	105	192	0
TAP	105	192	5
TAP	105	288	7
TAP	105	336	7
TAP	106	0	3
TAP	106	0	6
TAP	106	96	1
TAP	106	144	1
TAP	106	192	2
TAP	106	192	7
STR	106	288	6
SI_	106	288	6	96	48	3
STR	107	0	1
SI_	107	0	1	96	48	4
STR	107	96	7
SI_	107	96	7	96	48	4
STR	107	192	0
SI_	107	192	0	96	48	3
STR	107	288	7
SI_	107	288	7	96	48	3
XTP	108	0	0
XTP	108	96	0
XTP	108	96	7
BRK	108	192	1
BRK	108	192	5
STR	109	0	6
SI_	109	0	6	96	48	4
STR	109	0	7
SI_	109	0	7	96	48	3
STR	109	192	0
SI_	109	192	0	96	48	4
STR	109	192	1
SI_	109	192	1	96	48	3
STR	110	0	0
SI_	110	0	0	96	48	3
STR	110	0	7
SI_	110	0	7	96	48	4
XTP	110	192	1
XTP	110	192	6
TAP	111	0	1
TAP	111	0	3
TAP	111	96	3
TAP	111	96	4
TAP	111	192	4
TAP	111	192	5
TAP	111	240	6
TAP	111	288	0
TAP	111	288	7
TAP	112	0	4
TAP	112	0	6
TAP	112	96	3
TAP	112	96	4
TAP	112	192	2
TAP	112	192	3
TAP	112	240	1
TAP	112	288	0
TAP	112	288	7
HLD	113	0	1	96
TAP	113	96	3
HLD	113	192	0	96
TAP	113	288	2
TAP	114	0	2
TAP	114	0	3
TAP	114	96	0
TAP	114	96	1
TAP	114	192	6
TAP	114	192	7
TAP	114	288	4
TAP	114	288	5
TAP	115	0	4
TAP	115	0	6
TAP	115	96	3
TAP	115	96	4
TAP	115	192	2
TAP	115	192	3
TAP	115	240	1
TAP	115	288	0
TAP	115	288	6
TAP	116	0	1
TAP	116	0	3
TAP	116	96	3
TAP	116	96	4
TAP	116	192	4
TAP	116	192	5
TAP	116	240	6
TAP	116	288	1
TAP	116	288	7
HLD	117	0	6	96
TAP	117	96	4
HLD	117	192	7	96
TAP	117	288	5
TAP	118	0	4
TAP	118	0	5
TAP	118	96	6
TAP	118	96	7
TAP	118	192	0
TAP	118	192	1
TAP	118	288	2
TAP	118	288	3
TAP	119	0	5
TAP	119	48	5
TAP	119	96	7
TAP	119	144	7
XTP	119	192	0
TAP	119	288	2
TAP	119	336	2
TAP	120	0	0
TAP	120	48	0
XTP	120	96	7
TAP	120	192	0
TAP	120	192	7
TAP	120	288	3
TAP	120	288	4
HLD	121	0	2	96
HLD	121	96	0	96
HLD	121	192	7	96
TAP	121	288	5
TAP	122	0	4
TAP	122	0	5
TAP	122	96	6
TAP	122	96	7
TAP	122	192	0
TAP	122	192	1
TAP	122	288	2
TAP	122	288	3
TAP	123	0	1
TAP	123	48	1
TAP	123	96	3
TAP	123	144	3
XTP	123	192	4
TAP	123	288	6
TAP	123	336	6
TAP	124	0	4
TAP	124	48	4
XTP	124	96	3
TAP	124	192	3
TAP	124	192	4
TAP	124	288	0
TAP	124	288	7
HLD	125	0	5	96
HLD	125	96	7	96
HLD	125	192	0	96
TAP	125	288	2
TAP	126	0	2
TAP	126	0	3
TAP	126	96	0
TAP	126	96	1
STR	126	192	7
SF_	126	192	7	96	96	3

T_REC_TAP	382
T_REC_BRK	24
T_REC_XTP	43
T_REC_HLD	48
T_REC_XHO	0
T_REC_STR	42
T_REC_BST	0
T_REC_XST	0
T_REC_TTP	61
T_REC_THO	3
T_REC_SLD	42
T_REC_ALL	645
T_NUM_TAP	528
T_NUM_BRK	24
T_NUM_HLD	51
T_NUM_SLD	42
T_NUM_ALL	645
T_JUDGE_TAP	552
T_JUDGE_HLD	223
T_JUDGE_SLD	42
T_JUDGE_ALL	817
TTM_EACHPAIRS	164
TTM_SCR_TAP	264000
TTM_SCR_BRK	62400
TTM_SCR_HLD	51000
TTM_SCR_SLD	63000
TTM_SCR_ALL	440400
TTM_SCR_S	424900
TTM_SCR_SS	438000
TTM_RAT_ACV	10054

