VERSION	0.00.00	1.03.00
FES_MODE	0
BPM_DEF	200.000	200.000	200.000	200.000
MET_DEF	4	4
RESOLUTION	384
CLK_DEF	384
COMPATIBLE_CODE	MA2

BPM	0	0	200.000
MET	0	0	4	4

TTP	1	0	2	B	0	L1
TTP	1	192	4	B	0	L1
TTP	2	0	6	B	0	L1
TTP	3	0	5	B	0	L1
TTP	3	192	3	B	0	L1
TTP	4	0	1	B	0	L1
TTP	5	0	2	B	0	L1
TTP	5	192	0	C	0	L1
TTP	6	0	5	B	0	L1
TTP	6	192	6	B	0	L1
THO	7	0	0	384	C	1	L1
TAP	9	0	6
TAP	9	96	6
TAP	9	192	7
TAP	10	0	1
TAP	10	96	1
TAP	10	192	0
TAP	11	0	6
TAP	11	96	6
TAP	11	192	7
TAP	11	288	0
TAP	12	0	1
TAP	12	96	1
XTP	12	192	0
XTP	12	192	1
TAP	13	0	1
TAP	13	96	1
TAP	13	192	0
TAP	14	0	6
TAP	14	96	6
TAP	14	192	7
TAP	15	0	1
TAP	15	96	0
TAP	15	192	7
TAP	15	288	6
TAP	16	0	7
TAP	16	96	0
XTP	16	192	1
XTP	16	192	6
HLD	17	0	5	192
TAP	17	192	4
HLD	18	0	3	192
TAP	18	192	4
HLD	19	0	2	192
TAP	19	192	3
TAP	20	0	2
TAP	20	96	2
TAP	20	192	2
TAP	20	192	3
HLD	21	0	2	192
TAP	21	192	3
HLD	22	0	4	192
TAP	22	192	3
HLD	23	0	5	192
TAP	23	192	4
TAP	24	0	5
TAP	24	96	5
XTP	24	192	4
XTP	24	192	6
HLD	25	0	5	192
TAP	25	192	4
HLD	26	0	2	192
TAP	26	192	3
HLD	27	0	4	192
TAP	27	192	3
TAP	27	288	3
TAP	28	0	4
TAP	28	96	5
TAP	28	192	4
TAP	28	192	6
HLD	29	0	2	192
TAP	29	192	3
HLD	30	0	5	192
TAP	30	192	4
HLD	31	0	3	192
TAP	31	192	4
TAP	31	288	4
TAP	32	0	3
TAP	32	0	4
XTP	32	96	2
XTP	32	96	5
BRK	32	192	1
BRK	32	192	6
STR	33	0	0
SCR	33	0	0	96	480	6
STR	35	0	7
SCL	35	0	7	96	480	1
STR	37	0	0
SXR	37	0	0	96	480	3
TAP	39	0	3
TAP	39	0	4
TAP	39	192	3
TAP	39	192	4
TAP	40	0	2
TAP	40	0	5
TAP	40	96	2
TAP	40	96	5
BRK	40	192	1
BRK	40	192	6
TAP	41	0	1
TAP	41	96	1
TAP	41	192	0
TAP	41	192	1
TAP	41	288	0
TAP	41	288	1
TAP	42	0	7
TAP	42	96	0
TAP	42	96	7
XTP	42	192	1
XTP	42	192	6
TAP	43	0	5
TAP	43	96	4
TAP	43	192	3
TAP	43	288	2
TAP	44	0	3
TAP	44	96	3
TAP	44	96	4
XTP	44	192	2
XTP	44	192	5
STR	45	0	1
SCR	45	0	1	96	192	4
STR	46	0	5
SCR	46	0	5	96	192	0
TAP	47	0	1
TAP	47	96	0
TAP	47	192	7
TAP	47	288	6
TAP	48	0	6
TAP	48	96	6
TAP	48	96	7
BRK	48	192	0
BRK	48	192	5
TAP	49	0	6
TAP	49	96	6
TAP	49	192	6
TAP	49	192	7
TAP	49	288	6
TAP	49	288	7
TAP	50	0	0
TAP	50	96	0
TAP	50	96	7
XTP	50	192	1
XTP	50	192	6
TAP	51	0	2
TAP	51	96	3
TAP	51	192	4
TAP	51	288	5
TAP	52	0	4
TAP	52	96	3
TAP	52	96	4
XTP	52	192	2
XTP	52	192	5
STR	53	0	6
SCL	53	0	6	96	192	3
STR	54	0	2
SCL	54	0	2	96	192	7
TAP	55	0	6
TAP	55	96	7
TAP	55	192	0
TAP	55	288	1
TAP	56	0	0
TAP	56	0	1
TAP	56	96	2
TAP	56	96	7
BRK	56	192	3
BRK	56	192	6
TTP	57	0	6	B	0	L1
TTP	58	0	3	B	0	L1
TTP	59	0	1	B	0	L1
TTP	60	0	0	C	0	L1
TTP	61	0	1	B	0	L1
TTP	61	192	0	C	0	L1
TTP	62	0	5	B	0	L1
TTP	63	0	6	B	0	L1
TTP	63	192	0	C	0	L1
TTP	64	0	2	B	0	L1
TTP	65	0	1	B	0	L1
TTP	65	192	0	C	0	L1
TTP	66	0	5	B	0	L1
TTP	66	192	6	B	0	L1
TTP	67	0	0	C	0	L1
TTP	67	192	2	B	0	L1
TTP	68	0	0	C	1	L1
STR	69	0	7
SCR	69	0	7	96	480	5
STR	71	0	6
SCL	71	0	6	96	480	0
STR	73	0	7
SI_	73	0	7	96	192	4
STR	74	0	3
SI_	74	0	3	96	192	0
TAP	75	0	7
TAP	75	192	0
TAP	75	192	7
TAP	76	0	0
TAP	76	0	7
TAP	76	96	1
TAP	76	96	6
XTP	76	192	2
XTP	76	192	5
HLD	77	0	5	768
HLD	79	0	4	768
HLD	81	0	3	768
HLD	83	0	2	384
TAP	84	0	3
TAP	85	0	2
TAP	85	96	2
TAP	85	192	2
TAP	85	288	2
TAP	86	0	3
TAP	86	96	3
TAP	86	192	3
TAP	86	288	3
TAP	87	0	4
TAP	87	96	4
TAP	87	192	4
TAP	87	288	4
TAP	88	0	5
TAP	88	96	5
XHO	88	192	5	576
XHO	89	0	4	768
BRK	92	192	7
TAP	93	0	1
TAP	93	96	1
TAP	93	192	0
TAP	93	192	1
TAP	93	288	0
TAP	93	288	1
TAP	94	0	6
TAP	94	96	6
TAP	94	96	7
XTP	94	192	0
XTP	94	192	5
HLD	95	0	5	96
TAP	95	96	4
HLD	95	192	2	96
TAP	95	288	3
TAP	96	0	4
TAP	96	96	3
TAP	96	96	4
XTP	96	192	2
XTP	96	192	5
STR	97	0	1
SCL	97	0	1	96	192	6
STR	98	0	5
SCL	98	0	5	96	192	2
TAP	99	0	1
TAP	99	96	2
TAP	99	192	3
TAP	99	288	4
TAP	100	0	5
TAP	100	96	4
TAP	100	96	5
XTP	100	192	3
XTP	100	192	6
TAP	101	0	6
TAP	101	96	6
TAP	101	192	6
TAP	101	192	7
TAP	101	288	6
TAP	101	288	7
TAP	102	0	1
TAP	102	96	0
TAP	102	96	1
XTP	102	192	2
XTP	102	192	7
HLD	103	0	2	96
TAP	103	96	3
HLD	103	192	5	96
TAP	103	288	4
TAP	104	0	3
TAP	104	96	3
TAP	104	96	4
XTP	104	192	2
XTP	104	192	5
STR	105	0	6
SCR	105	0	6	96	192	1
STR	106	0	2
SCR	106	0	2	96	192	5
TAP	107	0	6
TAP	107	96	6
TAP	107	192	7
TAP	107	288	7
TAP	108	0	0
TAP	108	0	7
TAP	108	96	0
TAP	108	96	7
XTP	108	192	1
XTP	108	192	6
TAP	109	0	3
TAP	109	0	4
TAP	109	96	3
TAP	109	96	4
TAP	109	192	2
TAP	109	192	5
TAP	109	288	2
TAP	109	288	5
XTP	110	0	1
XTP	110	0	6
XTP	110	96	0
XTP	110	96	7
BRK	110	192	1
BRK	110	192	6
TAP	111	0	0
TAP	111	96	0
TAP	111	192	1
TAP	111	288	1
TAP	112	0	2
TAP	112	96	2
TAP	112	192	2
TAP	112	192	3
TAP	113	0	4
TAP	113	96	4
TAP	113	192	5
TAP	113	288	5
TAP	114	0	6
TAP	114	96	6
XTP	114	192	6
XTP	114	192	7
TAP	115	0	7
TAP	115	96	7
TAP	115	192	6
TAP	115	288	6
TAP	116	0	5
TAP	116	96	5
TAP	116	192	4
TAP	116	192	5
TAP	117	0	3
TAP	117	96	3
TAP	117	192	2
TAP	117	288	2
TAP	118	0	1
TAP	118	96	0
TAP	118	96	1
XTP	118	192	2
XTP	118	192	7
TAP	119	0	0
TAP	119	96	1
TAP	119	192	2
TAP	119	288	3
TAP	120	0	4
TAP	120	96	5
TAP	120	192	6
TAP	120	192	7
TAP	121	0	7
TAP	121	96	6
TAP	121	192	5
TAP	121	288	4
TAP	122	0	3
TAP	122	96	2
XTP	122	192	0
XTP	122	192	1
TAP	123	0	0
TAP	123	96	1
TAP	123	192	2
TAP	123	288	3
TAP	123	288	4
TAP	124	0	5
TAP	124	96	6
TAP	124	192	7
TAP	124	288	0
TAP	124	288	1
TAP	125	0	2
TAP	125	96	3
TAP	125	192	4
TAP	125	288	5
TAP	126	0	6
TAP	126	96	7
XTP	126	192	0
XTP	126	192	7
BRK	126	288	1
BRK	126	288	6

T_REC_TAP	237
T_REC_BRK	13
T_REC_XTP	42
T_REC_HLD	20
T_REC_XHO	2
T_REC_STR	15
T_REC_BST	0
T_REC_XST	0
T_REC_TTP	27
T_REC_THO	1
T_REC_SLD	15
T_REC_ALL	372
T_NUM_TAP	321
T_NUM_BRK	13
T_NUM_HLD	23
T_NUM_SLD	15
T_NUM_ALL	372
T_JUDGE_TAP	334
T_JUDGE_HLD	148
T_JUDGE_SLD	15
T_JUDGE_ALL	497
TTM_EACHPAIRS	69
TTM_SCR_TAP	160500
TTM_SCR_BRK	33800
TTM_SCR_HLD	23000
TTM_SCR_SLD	22500
TTM_SCR_ALL	239800
TTM_SCR_S	231350
TTM_SCR_SS	238500
TTM_RAT_ACV	10054

