VERSION	0.00.00	1.03.00
FES_MODE	0
BPM_DEF	200.000	200.000	200.000	200.000
MET_DEF	4	4
RESOLUTION	384
CLK_DEF	384
COMPATIBLE_CODE	MA2

BPM	0	0	200.000
MET	0	0	4	4
CLK	0	0
CLK	0	96
CLK	0	192
CLK	0	288

TAP	9	0	3
TAP	10	0	3
TAP	11	0	2
TAP	12	0	2
TAP	13	0	1
TAP	14	0	1
TAP	15	0	0
BRK	16	0	0
HLD	17	0	7	768
TAP	20	0	7
HLD	21	0	6	768
XTP	24	0	6
TAP	25	0	5
TAP	25	192	5
TAP	26	0	5
HLD	27	0	5	384
TAP	29	0	4
TAP	29	192	4
TAP	30	0	3
TAP	30	0	4
HLD	31	0	3	384
HLD	31	0	4	384
TTP	33	0	2	B	0	L1
TTP	34	0	1	B	0	L1
TTP	35	0	0	B	0	L1
TTP	36	0	7	B	0	L1
TTP	37	0	6	B	0	L1
TTP	38	0	5	B	0	L1
THO	39	0	0	384	C	1	L1
TAP	41	0	0
TAP	41	192	0
TAP	42	0	1
TAP	42	192	1
TAP	43	0	2
TAP	43	192	2
TAP	44	0	3
TAP	44	96	3
TAP	44	192	3
HLD	45	0	3	384
HLD	45	0	4	384
TAP	47	0	3
TAP	47	0	4
TAP	47	192	3
TAP	47	192	4
TAP	48	0	3
TAP	48	96	3
BRK	48	192	3
TAP	49	0	4
TAP	49	192	4
TAP	50	0	5
TAP	50	192	5
TAP	51	0	6
TAP	51	192	6
TAP	52	0	7
TAP	52	96	7
TAP	52	192	7
HLD	53	0	0	384
HLD	53	0	7	384
TAP	55	0	0
TAP	55	0	7
TAP	55	192	0
TAP	55	192	7
TAP	56	0	0
TAP	56	96	0
BRK	56	192	0
STR	57	0	7
SI_	57	0	7	96	288	4
STR	59	0	0
SI_	59	0	0	96	288	3
HLD	61	0	7	384
HLD	63	0	6	384
HLD	65	0	5	384
HLD	67	0	4	384
TAP	69	0	3
TAP	69	192	3
TAP	70	0	3
TAP	71	0	2
TAP	71	192	2
TAP	72	0	2
HLD	73	0	1	384
TAP	75	0	0
TAP	75	0	7
BRK	76	0	0
BRK	76	0	7
STR	77	0	0
SI_	77	0	0	96	288	4
TAP	79	0	7
TAP	80	0	7
STR	81	0	7
SI_	81	0	7	96	288	3
TAP	83	0	0
TAP	84	0	0
TAP	85	0	7
TAP	85	192	7
TAP	86	0	7
TAP	87	0	6
TAP	87	192	6
TAP	88	0	6
TAP	89	0	5
TAP	89	192	5
TAP	90	0	5
XTP	91	0	3
XTP	91	0	4
TAP	93	0	3
TAP	93	96	3
TAP	93	192	3
TAP	94	0	2
TAP	94	96	2
TAP	94	192	2
TAP	95	0	1
TAP	95	96	1
TAP	95	192	1
TAP	96	0	0
TAP	96	96	0
TAP	96	192	0
HLD	97	0	7	384
TAP	99	0	0
TAP	99	96	0
TAP	99	192	0
TAP	100	0	7
TAP	100	96	7
XTP	100	192	7
TAP	101	0	6
TAP	101	96	6
TAP	101	192	6
TAP	102	0	5
TAP	102	96	5
TAP	102	192	5
TAP	103	0	4
TAP	103	96	4
TAP	103	192	4
TAP	104	0	3
TAP	104	96	3
TAP	104	192	3
HLD	105	0	4	384
TAP	107	0	3
TAP	107	96	3
TAP	107	192	3
TAP	108	0	4
TAP	108	96	4
BRK	108	192	4
XTP	109	0	2
XTP	109	0	3
XTP	109	96	2
XTP	109	96	3
XTP	109	192	2
XTP	109	192	3
XTP	110	0	4
XTP	110	0	5
XTP	110	96	4
XTP	110	96	5
BRK	110	192	4
BRK	110	192	5
TAP	111	0	6
TAP	111	192	6
TAP	112	0	6
TAP	113	0	7
TAP	113	192	7
TAP	114	0	0
TAP	114	0	7
TAP	115	0	1
TAP	115	192	1
TAP	116	0	1
TAP	117	0	2
TAP	117	192	2
TAP	118	0	2
TAP	118	0	3
TAP	119	0	4
TAP	119	192	4
TAP	120	0	4
TAP	121	0	5
TAP	121	192	5
TAP	122	0	4
TAP	122	0	5
TAP	123	0	6
TAP	123	192	6
TAP	124	0	6
TAP	125	0	7
TAP	125	192	7
STR	126	0	7
SI_	126	0	7	96	288	3

T_REC_TAP	126
T_REC_BRK	8
T_REC_XTP	14
T_REC_HLD	16
T_REC_XHO	0
T_REC_STR	5
T_REC_BST	0
T_REC_XST	0
T_REC_TTP	6
T_REC_THO	1
T_REC_SLD	5
T_REC_ALL	181
T_NUM_TAP	151
T_NUM_BRK	8
T_NUM_HLD	17
T_NUM_SLD	5
T_NUM_ALL	181
T_JUDGE_TAP	159
T_JUDGE_HLD	152
T_JUDGE_SLD	5
T_JUDGE_ALL	316
TTM_EACHPAIRS	20
TTM_SCR_TAP	75500
TTM_SCR_BRK	20800
TTM_SCR_HLD	17000
TTM_SCR_SLD	7500
TTM_SCR_ALL	120800
TTM_SCR_S	116400
TTM_SCR_SS	120000
TTM_RAT_ACV	10066

