VERSION	0.00.00	1.03.00
FES_MODE	0
BPM_DEF	154.000	154.000	154.000	154.000
MET_DEF	4	4
RESOLUTION	384
CLK_DEF	384
COMPATIBLE_CODE	MA2

BPM	0	0	154.000
MET	0	0	4	4

TAP	2	0	4
TAP	2	24	3
HLD	2	48	5	48
TAP	2	96	3
TAP	2	120	4
HLD	2	144	2	48
TAP	2	192	4
TAP	2	216	3
HLD	2	240	5	48
TAP	2	288	3
TAP	2	312	4
HLD	2	336	2	48
TAP	3	0	5
TAP	3	24	4
HLD	3	48	6	48
TAP	3	96	2
TAP	3	120	3
HLD	3	144	1	48
TAP	3	192	5
TAP	3	216	4
HLD	3	240	6	48
TAP	3	288	0
TAP	4	0	3
TAP	4	24	4
HLD	4	48	2	48
TAP	4	96	4
TAP	4	120	3
HLD	4	144	5	48
TAP	4	192	3
TAP	4	216	4
HLD	4	240	2	48
TAP	4	288	4
TAP	4	312	3
HLD	4	336	5	48
TAP	5	0	2
TAP	5	24	3
HLD	5	48	1	48
TAP	5	96	5
TAP	5	120	4
HLD	5	144	6	48
TAP	5	192	2
TAP	5	216	3
HLD	5	240	1	48
TAP	5	288	7
TAP	6	0	5
TAP	6	24	4
HLD	6	48	6	48
TAP	6	96	2
TAP	6	120	3
HLD	6	144	1	48
TAP	6	192	5
TAP	6	216	4
HLD	6	240	6	48
TAP	6	288	2
TAP	6	312	3
HLD	6	336	1	48
TAP	7	0	5
TAP	7	24	4
HLD	7	48	7	48
TAP	7	96	2
TAP	7	120	3
HLD	7	144	0	48
TAP	7	192	5
TAP	7	216	4
HLD	7	240	7	48
TAP	7	288	0
TAP	8	0	2
TAP	8	24	3
HLD	8	48	1	48
TAP	8	96	5
TAP	8	120	4
HLD	8	144	6	48
TAP	8	192	2
TAP	8	216	3
HLD	8	240	1	48
TAP	8	288	5
TAP	8	312	4
HLD	8	336	6	48
TAP	9	0	0
TAP	9	24	7
TAP	9	48	0
TAP	9	72	7
TAP	9	96	0
TAP	9	120	7
TAP	9	144	0
TAP	9	168	7
TAP	9	192	0
TAP	9	240	0
BRK	9	288	1
BRK	9	288	6
TAP	10	0	3
TAP	10	0	5
TAP	10	72	2
TAP	10	72	4
HLD	10	144	1	96
TAP	10	144	3
TAP	10	240	7
TAP	10	288	2
TAP	10	288	6
TAP	11	0	2
TAP	11	0	4
TAP	11	72	3
TAP	11	72	5
TAP	11	144	4
HLD	11	144	6	96
TAP	11	240	0
TAP	11	288	1
TAP	11	288	5
STR	11	336	0
SI_	11	336	0	96	48	4
STR	12	0	7
SI_	12	0	7	96	48	3
XTP	12	48	0
XTP	12	96	7
STR	12	144	0
SI_	12	144	0	96	48	4
STR	12	192	7
SI_	12	192	7	96	48	3
XTP	12	240	0
XTP	12	288	7
XTP	12	336	0
TAP	13	0	7
HLD	13	48	0	96
STR	13	144	3
SI_	13	144	3	96	48	6
TAP	13	240	2
TAP	13	288	2
TAP	14	0	2
TAP	14	0	4
TAP	14	72	3
TAP	14	72	5
TAP	14	144	4
HLD	14	144	6	96
TAP	14	240	0
TAP	14	288	1
TAP	14	288	5
TAP	15	0	3
TAP	15	0	5
TAP	15	72	2
TAP	15	72	4
HLD	15	144	1	96
TAP	15	144	3
TAP	15	240	7
TAP	15	288	2
TAP	15	288	6
TAP	16	0	2
TAP	16	0	4
TAP	16	72	3
TAP	16	72	5
TAP	16	144	4
HLD	16	144	6	96
TAP	16	240	0
TAP	16	288	1
STR	16	288	5
SUL	16	288	5	96	192	3
TAP	17	288	2
TAP	17	288	5
HLD	18	0	7	96
HLD	18	96	4	96
TAP	18	192	5
TAP	18	216	4
STR	18	240	5
SI_	18	240	5	96	48	7
TAP	18	264	4
TAP	18	336	0
TAP	19	0	0
TAP	19	48	0
TAP	19	96	3
HLD	19	144	3	48
TAP	19	192	2
TAP	19	216	3
STR	19	240	2
SI_	19	240	2	96	48	0
TAP	19	264	3
TAP	19	336	7
TAP	20	0	7
TAP	20	48	7
TAP	20	96	4
HLD	20	144	4	48
TAP	20	192	5
TAP	20	216	4
STR	20	240	5
SI_	20	240	5	96	48	7
TAP	20	264	4
TAP	20	336	0
TAP	21	0	0
TAP	21	48	1
TAP	21	96	2
TAP	21	144	3
TAP	21	192	4
TAP	21	240	5
TAP	21	288	6
TAP	21	336	7
HLD	22	0	0	96
HLD	22	96	3	96
TAP	22	192	2
TAP	22	216	3
STR	22	240	2
SI_	22	240	2	96	48	0
TAP	22	264	3
TAP	22	336	7
TAP	23	0	7
TAP	23	48	7
TAP	23	96	4
HLD	23	144	4	48
TAP	23	192	5
TAP	23	216	4
STR	23	240	5
SI_	23	240	5	96	48	7
TAP	23	264	4
TAP	23	336	0
TAP	24	0	0
TAP	24	48	0
TAP	24	96	3
HLD	24	144	3	48
TAP	24	192	2
TAP	24	216	3
STR	24	240	2
SI_	24	240	2	96	48	0
TAP	24	264	3
TAP	24	336	7
HLD	25	0	7	72
HLD	25	72	5	72
TAP	25	144	4
TAP	25	192	2
TAP	25	216	3
TAP	25	240	2
TAP	25	288	1
TAP	25	288	5
STR	26	0	4
SI_	26	0	4	96	48	7
TAP	26	72	2
TAP	26	144	3
STR	26	192	3
SI_	26	192	3	96	48	0
TAP	26	264	5
TAP	26	336	4
STR	27	0	4
SI_	27	0	4	96	48	7
TAP	27	72	2
TAP	27	144	3
TAP	27	192	3
TAP	27	192	7
TAP	27	288	2
TAP	27	288	4
STR	28	0	1
SCL	28	0	1	96	48	6
TAP	28	48	1
STR	28	96	5
SLL	28	96	5	96	144	7
TAP	28	144	5
TAP	28	192	2
TAP	28	264	1
TAP	28	336	0
HLD	29	0	0	72
HLD	29	72	2	72
TAP	29	144	3
TAP	29	192	1
TAP	29	192	4
TAP	29	288	3
STR	29	288	5
SI_	29	288	5	96	48	2
TAP	29	336	2
TAP	30	0	1
STR	30	96	2
SI_	30	96	2	96	48	5
TAP	30	96	4
TAP	30	144	5
TAP	30	192	6
TAP	30	288	3
STR	30	288	5
SI_	30	288	5	96	48	2
TAP	30	336	2
TAP	31	0	0
STR	31	96	2
SI_	31	96	2	96	48	5
TAP	31	96	4
TAP	31	144	5
TAP	31	192	7
TAP	31	288	3
TAP	31	288	5
TTP	32	0	1	B	0	M1
TTP	32	0	1	E	0	M1
TTP	32	48	6	B	0	M1
TTP	32	48	7	E	0	M1
TTP	32	96	2	B	0	M1
TTP	32	96	3	E	0	M1
TTP	32	144	5	B	0	M1
TTP	32	144	5	E	0	M1
TTP	32	192	1	B	0	M1
TTP	32	192	1	E	0	M1
TTP	32	240	6	B	0	M1
TTP	32	240	7	E	0	M1
TTP	32	288	2	B	0	M1
TTP	32	288	3	E	0	M1
TTP	32	336	5	B	0	M1
TTP	32	336	5	E	0	M1
TAP	33	0	0
TAP	33	48	0
TAP	33	96	7
TAP	33	144	7
STR	33	192	0
SI_	33	192	0	96	48	3
STR	33	192	6
SI_	33	192	6	96	48	3
XTP	33	288	0
XTP	33	288	6
XTP	34	0	2
XST	34	0	5
SLR	34	0	5	96	96	3
TAP	34	72	3
TAP	34	144	1
STR	34	192	1
SLR	34	192	1	96	96	7
TAP	34	264	3
TAP	34	336	5
STR	35	0	5
SLL	35	0	5	96	96	7
TAP	35	72	1
TAP	35	144	0
STR	35	192	0
SI_	35	192	0	96	48	5
STR	35	240	7
SI_	35	240	7	96	48	3
XTP	35	288	0
XTP	35	336	7
TAP	36	0	1
HLD	36	48	1	48
TAP	36	96	3
HLD	36	144	3	48
TAP	36	192	4
HLD	36	240	4	48
STR	36	288	6
SCR	36	288	6	96	144	3
TAP	36	336	6
TTP	37	0	0	C	1	M1
TTP	37	96	4	E	0	M1
STR	37	192	0
SI_	37	192	0	96	48	2
SI_	37	192	0	96	48	5
XTP	37	288	0
XST	38	0	2
SLL	38	0	2	96	96	4
XTP	38	0	5
TAP	38	72	4
TAP	38	144	6
STR	38	192	6
SLL	38	192	6	96	96	0
TAP	38	264	4
TAP	38	336	2
STR	39	0	2
SLR	39	0	2	96	96	0
TAP	39	72	6
TAP	39	144	7
STR	39	192	7
SI_	39	192	7	96	48	2
STR	39	240	0
SI_	39	240	0	96	48	4
XTP	39	288	7
XTP	39	336	0
STR	40	0	7
SCL	40	0	7	96	144	1
TAP	40	96	1
TAP	40	192	0
STR	40	288	7
SSR	40	288	7	96	96	3
TAP	41	144	7
STR	41	192	7
SI_	41	192	7	96	48	2
SI_	41	192	7	96	48	5
XTP	41	288	7
XST	42	0	2
SLL	42	0	2	96	96	4
XTP	42	0	5
TAP	42	72	6
TAP	42	144	7
STR	42	192	7
SCL	42	192	7	96	48	4
TAP	42	264	4
TAP	42	336	3
STR	43	0	3
SCL	43	0	3	96	48	0
TAP	43	72	6
TAP	43	144	7
STR	43	192	7
SI_	43	192	7	96	48	2
STR	43	240	0
SI_	43	240	0	96	48	4
XTP	43	288	7
XTP	43	336	0
TAP	44	0	6
HLD	44	48	6	48
TAP	44	96	4
HLD	44	144	4	48
TAP	44	192	3
HLD	44	240	3	48
STR	44	288	1
SCL	44	288	1	96	144	4
TAP	44	336	1
TTP	45	0	0	C	1	M1
TTP	45	96	4	E	0	M1
STR	45	192	7
SI_	45	192	7	96	48	2
SI_	45	192	7	96	48	5
XTP	45	288	7
XTP	46	0	2
XST	46	0	5
SCL	46	0	5	96	48	2
TAP	46	72	1
HLD	46	144	0	96
STR	46	240	2
SXL	46	240	2	96	192	6
TAP	46	336	1
TAP	47	48	0
TAP	47	96	0
HLD	47	144	7	96
TAP	47	288	6
TAP	47	288	7
STR	47	336	6
SI_	47	336	6	96	48	3
STR	47	336	7
SI_	47	336	7	96	48	2
XTP	48	48	6
XTP	48	48	7
STR	48	144	0
SI_	48	144	0	96	48	5
STR	48	144	1
SI_	48	144	1	96	48	4
XTP	48	240	0
XTP	48	240	1
STR	48	336	0
SCR	48	336	0	96	48	3
STR	48	336	7
SCL	48	336	7	96	48	4
XTP	49	48	0
XTP	49	48	7
BRK	49	144	0
BRK	49	144	7
STR	49	240	3
SSR	49	240	3	96	240	7
STR	49	240	4
SSL	49	240	4	96	240	0
TAP	50	288	0
TAP	50	288	7
HLD	51	0	6	96
HLD	51	96	4	96
TAP	51	192	3
TAP	51	240	3
TAP	51	288	1
TAP	51	336	1
STR	52	0	5
SI_	52	0	5	96	48	2
TAP	52	48	5
STR	52	96	1
SI_	52	96	1	96	48	6
TAP	52	144	1
STR	52	192	4
SI_	52	192	4	96	48	7
TAP	52	240	4
STR	52	288	0
SI_	52	288	0	96	48	3
TAP	52	336	0
STR	53	0	4
SI_	53	0	4	96	48	6
TAP	53	48	4
STR	53	96	3
SI_	53	96	3	96	48	1
TAP	53	144	3
STR	53	192	4
SI_	53	192	4	96	48	7
TAP	53	240	4
STR	53	288	0
SCR	53	288	0	96	96	5
TAP	53	336	0
TTP	54	0	0	C	1	M1
HLD	54	192	7	192
STR	55	0	4
SI_	55	0	4	96	48	0
TAP	55	72	5
TAP	55	144	6
STR	55	192	6
SI_	55	192	6	96	48	2
TAP	55	288	0
HLD	56	0	0	72
HLD	56	72	2	72
TAP	56	144	3
HLD	56	192	4	72
HLD	56	264	6	72
TAP	56	336	7
HLD	57	0	0	72
HLD	57	72	2	72
TAP	57	144	3
STR	57	192	3
SI_	57	192	3	96	48	0
STR	57	192	4
SI_	57	192	4	96	48	7
HLD	58	0	2	192
HLD	58	0	5	1536
TTP	59	0	6	E	0	M1
TTP	59	48	5	E	0	M1
TTP	59	96	7	E	0	M1
TTP	59	144	4	E	0	M1
TTP	59	192	2	E	0	M1
TTP	59	240	3	E	0	M1
TTP	59	288	0	C	0	M1
TTP	59	336	0	E	0	M1
TTP	60	0	6	E	0	M1
TTP	60	48	5	E	0	M1
TTP	60	96	7	E	0	M1
TTP	60	144	4	E	0	M1
TTP	60	192	2	E	0	M1
TTP	60	240	3	E	0	M1
TTP	60	288	0	C	0	M1
TTP	60	336	0	E	0	M1
TTP	61	0	6	E	0	M1
TTP	61	48	5	E	0	M1
TTP	61	96	7	E	0	M1
TTP	61	144	4	E	0	M1
TTP	61	192	2	E	0	M1
TTP	61	240	3	E	0	M1
TTP	61	288	0	C	0	M1
TAP	62	0	0
TAP	62	96	1
HLD	62	192	2	1344
TTP	63	0	2	E	0	M1
TTP	63	48	3	E	0	M1
TTP	63	96	1	E	0	M1
TTP	63	144	4	E	0	M1
TTP	63	192	6	E	0	M1
TTP	63	240	5	E	0	M1
TTP	63	288	0	C	0	M1
TTP	63	336	0	E	0	M1
TTP	64	0	2	E	0	M1
TTP	64	48	3	E	0	M1
TTP	64	96	1	E	0	M1
TTP	64	144	4	E	0	M1
TTP	64	192	6	E	0	M1
TTP	64	240	5	E	0	M1
TTP	64	288	0	C	0	M1
TTP	64	336	0	E	0	M1
TTP	65	0	2	E	0	M1
TTP	65	48	3	E	0	M1
TTP	65	96	1	E	0	M1
TTP	65	144	4	E	0	M1
TTP	65	192	6	E	0	M1
TTP	65	240	5	E	0	M1
TTP	65	288	0	C	0	M1
TAP	66	0	7
TAP	66	288	3
TAP	66	288	4
TAP	67	0	3
TAP	67	0	5
TAP	67	48	5
TAP	67	96	3
TAP	67	96	5
TAP	67	144	5
TAP	67	192	4
TAP	67	192	5
TAP	67	240	5
TAP	67	288	4
TAP	67	288	5
TAP	67	336	5
TAP	68	0	3
TAP	68	0	5
TAP	68	48	5
TAP	68	96	3
TAP	68	96	5
TAP	68	144	5
TAP	68	192	4
TAP	68	192	5
TAP	68	240	5
TAP	68	288	3
TAP	68	288	5
TAP	68	336	5
TAP	69	0	2
TAP	69	0	4
TAP	69	48	2
TAP	69	96	2
TAP	69	96	4
TAP	69	144	2
TAP	69	192	2
TAP	69	192	3
TAP	69	240	2
TAP	69	288	2
TAP	69	288	3
TAP	69	336	2
TAP	70	0	2
TAP	70	0	4
TAP	70	48	2
TAP	70	96	2
TAP	70	96	4
TAP	70	144	2
TAP	70	192	2
TAP	70	192	3
TAP	70	240	2
TAP	70	288	2
TAP	70	288	4
TAP	70	336	2
TAP	71	0	3
TAP	71	0	5
TAP	71	48	5
TAP	71	96	3
TAP	71	96	5
TAP	71	144	5
TAP	71	192	4
TAP	71	192	5
TAP	71	240	5
STR	71	288	4
SCL	71	288	4	96	96	0
TAP	71	288	5
TAP	71	336	5
TAP	72	144	0
TAP	72	144	4
TAP	72	192	0
TAP	72	192	4
TAP	72	288	3
TAP	72	288	4
XST	73	0	3
SLR	73	0	3	96	96	1
XTP	73	0	5
TAP	73	72	4
TAP	73	144	7
STR	73	192	7
SLR	73	192	7	96	96	5
TAP	73	264	4
TAP	73	336	3
STR	74	0	3
SLR	74	0	3	96	96	1
TAP	74	72	6
TAP	74	144	7
STR	74	192	7
SI_	74	192	7	96	48	2
STR	74	240	0
SI_	74	240	0	96	48	4
XTP	74	288	7
XTP	74	336	0
TAP	75	0	6
HLD	75	48	6	48
TAP	75	96	4
HLD	75	144	4	48
TAP	75	192	3
HLD	75	240	3	48
STR	75	288	1
SCL	75	288	1	96	144	4
TAP	75	336	1
TTP	76	0	0	C	1	M1
TTP	76	96	4	E	0	M1
STR	76	192	7
SI_	76	192	7	96	48	2
SI_	76	192	7	96	48	4
XTP	76	288	7
XTP	77	0	2
XST	77	0	4
SLL	77	0	4	96	96	6
TAP	77	72	3
TAP	77	144	0
STR	77	192	0
SLL	77	192	0	96	96	2
TAP	77	264	3
TAP	77	336	4
STR	78	0	4
SLL	78	0	4	96	96	6
TAP	78	72	1
TAP	78	144	0
STR	78	192	0
SI_	78	192	0	96	48	5
STR	78	240	7
SI_	78	240	7	96	48	3
XTP	78	288	0
XTP	78	336	7
STR	79	0	0
SCR	79	0	0	96	144	6
TAP	79	96	6
TAP	79	192	7
STR	79	288	0
SSL	79	288	0	96	96	4
TAP	80	144	0
STR	80	192	0
SI_	80	192	0	96	48	2
SI_	80	192	0	96	48	4
XTP	80	288	0
XTP	81	0	2
XST	81	0	4
SLL	81	0	4	96	96	6
TAP	81	72	1
TAP	81	144	0
STR	81	192	0
SCR	81	192	0	96	48	3
TAP	81	264	6
TAP	81	336	4
TAP	82	0	3
STR	82	0	4
SCR	82	0	4	96	48	7
TAP	82	72	2
TAP	82	144	0
STR	82	192	0
SI_	82	192	0	96	48	5
STR	82	240	7
SI_	82	240	7	96	48	3
XTP	82	288	0
XTP	82	336	7
TAP	83	0	1
HLD	83	48	1	48
TAP	83	96	3
HLD	83	144	3	48
TAP	83	192	4
HLD	83	240	4	48
STR	83	288	6
SCR	83	288	6	96	144	3
TAP	83	336	6
TTP	84	0	0	C	1	M1
TTP	84	96	4	E	0	M1
STR	84	192	0
SI_	84	192	0	96	48	2
SI_	84	192	0	96	48	5
XTP	84	288	0
XST	85	0	2
SCR	85	0	2	96	48	5
XTP	85	0	5
TAP	85	72	6
HLD	85	144	7	96
STR	85	240	5
SXR	85	240	5	96	192	1
TAP	85	336	6
TAP	86	48	7
TAP	86	96	7
HLD	86	144	0	96
TAP	86	288	0
TAP	86	288	1
STR	86	336	0
SUR	86	336	0	96	48	5
STR	86	336	1
SCR	86	336	1	96	48	4
XTP	87	48	0
XTP	87	48	1
STR	87	144	6
SCL	87	144	6	96	48	3
STR	87	144	7
SUL	87	144	7	96	48	2
XTP	87	240	6
XTP	87	240	7
STR	87	336	0
SCR	87	336	0	96	48	3
STR	87	336	7
SCL	87	336	7	96	48	4
XTP	88	48	0
XTP	88	48	7
BST	88	144	0
SI_	88	144	0	96	48	4
BST	88	144	7
SI_	88	144	7	96	48	3
BRK	88	240	0
BRK	88	240	7
BRK	88	336	1
BRK	88	336	6
HLD	89	0	6	72
HLD	89	72	4	72
TAP	89	144	3
HLD	89	192	1	72
HLD	89	264	3	72
TAP	89	336	4
HLD	90	0	5	72
HLD	90	72	6	72
TAP	90	144	7
HLD	90	192	0	72
HLD	90	264	1	72
TAP	90	336	2
TAP	91	0	2
TAP	91	0	5
TAP	91	72	3
STR	91	96	4
SI_	91	96	4	96	48	7
TAP	91	144	2
TAP	91	192	2

T_REC_TAP	363
T_REC_BRK	8
T_REC_XTP	45
T_REC_HLD	79
T_REC_XHO	0
T_REC_STR	91
T_REC_BST	2
T_REC_XST	8
T_REC_TTP	71
T_REC_THO	0
T_REC_SLD	107
T_REC_ALL	774
T_NUM_TAP	578
T_NUM_BRK	10
T_NUM_HLD	79
T_NUM_SLD	107
T_NUM_ALL	774
T_JUDGE_TAP	588
T_JUDGE_HLD	177
T_JUDGE_SLD	107
T_JUDGE_ALL	872
TTM_EACHPAIRS	89
TTM_SCR_TAP	289000
TTM_SCR_BRK	26000
TTM_SCR_HLD	79000
TTM_SCR_SLD	160500
TTM_SCR_ALL	554500
TTM_SCR_S	536900
TTM_SCR_SS	553500
TTM_RAT_ACV	10018

