VERSION	0.00.00	1.03.00
FES_MODE	0
BPM_DEF	154.000	154.000	154.000	154.000
MET_DEF	4	4
RESOLUTION	384
CLK_DEF	384
COMPATIBLE_CODE	MA2

BPM	0	0	154.000
MET	0	0	4	4

TAP	2	0	1
TAP	2	48	1
TAP	2	96	4
TAP	2	144	4
TAP	2	192	0
TAP	2	240	0
TAP	2	288	3
TAP	2	336	3
TAP	3	0	1
TAP	3	48	1
TAP	3	96	7
TAP	3	144	7
STR	3	192	0
SI_	3	192	0	96	48	4
TAP	3	240	0
TAP	4	0	6
TAP	4	48	6
TAP	4	96	3
TAP	4	144	3
TAP	4	192	7
TAP	4	240	7
TAP	4	288	4
TAP	4	336	4
TAP	5	0	6
TAP	5	48	6
TAP	5	96	0
TAP	5	144	0
STR	5	192	7
SI_	5	192	7	96	48	3
TAP	5	240	7
TAP	6	0	1
TAP	6	48	1
TAP	6	96	4
TAP	6	144	4
TAP	6	192	0
TAP	6	240	0
TAP	6	288	3
TAP	6	336	3
TAP	7	0	1
TAP	7	48	1
TAP	7	96	7
TAP	7	144	7
STR	7	192	0
SI_	7	192	0	96	48	4
TAP	7	240	0
TAP	8	0	6
TAP	8	48	6
TAP	8	96	3
TAP	8	144	3
TAP	8	192	7
TAP	8	240	7
TAP	8	288	4
TAP	8	336	4
TAP	9	0	6
TAP	9	48	6
TAP	9	96	0
TAP	9	144	0
TAP	9	192	7
BRK	9	288	1
BRK	9	288	6
TAP	10	0	3
HLD	10	0	5	144
TAP	10	72	3
TAP	10	144	3
TAP	10	240	2
TAP	10	288	2
TAP	10	288	3
HLD	11	0	2	144
TAP	11	0	4
TAP	11	72	4
TAP	11	144	4
TAP	11	240	0
TAP	11	288	0
HLD	11	336	0	96
HLD	11	336	7	96
HLD	12	96	6	48
HLD	12	144	1	48
HLD	12	192	7	48
HLD	12	240	0	48
HLD	12	288	6	48
HLD	12	336	1	48
TAP	13	0	7
TAP	13	48	7
TAP	13	144	2
TAP	13	144	4
TAP	13	240	5
TAP	13	288	3
TAP	13	288	5
HLD	14	0	2	144
TAP	14	0	4
TAP	14	72	4
TAP	14	144	4
TAP	14	240	5
TAP	14	288	4
TAP	14	288	5
TAP	15	0	3
HLD	15	0	5	144
TAP	15	72	3
TAP	15	144	3
TAP	15	240	2
TAP	15	288	2
TAP	15	288	3
TAP	16	0	2
HLD	16	0	5	96
HLD	16	96	7	96
STR	16	192	0
SCR	16	192	0	96	288	7
XTP	17	288	7
HLD	18	0	1	144
TAP	18	0	3
TAP	18	72	3
TAP	18	144	3
TAP	18	240	5
TAP	18	288	3
TAP	18	288	5
TAP	19	0	4
HLD	19	0	6	144
TAP	19	72	4
TAP	19	144	4
TAP	19	240	7
TAP	19	288	7
TAP	19	336	0
TAP	19	336	7
TAP	20	48	6
HLD	20	96	6	96
HLD	20	192	4	96
HLD	20	288	3	96
TAP	21	0	1
TAP	21	48	1
TAP	21	144	0
TAP	21	144	7
TAP	21	240	5
TAP	21	288	3
TAP	21	288	5
TAP	22	0	4
HLD	22	0	6	144
TAP	22	72	4
TAP	22	144	4
TAP	22	240	2
TAP	22	288	2
TAP	22	288	4
HLD	23	0	1	144
TAP	23	0	3
TAP	23	72	3
TAP	23	144	3
TAP	23	240	5
TAP	23	288	3
TAP	23	288	5
HLD	24	0	2	96
TAP	24	0	4
HLD	24	96	0	96
STR	24	192	7
SCL	24	192	7	96	288	0
XTP	25	288	0
STR	26	0	1
SI_	26	0	1	96	48	4
TAP	26	0	7
TAP	26	192	0
STR	26	192	6
SI_	26	192	6	96	48	3
STR	27	0	1
SI_	27	0	1	96	48	4
TAP	27	0	7
TAP	27	192	3
TAP	27	192	6
TTP	28	0	4	E	0	M1
TTP	28	96	3	E	0	M1
TTP	28	96	5	E	0	M1
TTP	28	192	2	E	0	M1
TTP	28	192	6	E	0	M1
TTP	28	288	1	E	0	M1
TTP	28	288	7	E	0	M1
THO	29	0	0	192	C	0	M1
TTP	29	192	1	B	0	M1
TTP	29	192	6	B	0	M1
TAP	30	0	0
STR	30	0	7
SCL	30	0	7	96	96	4
TAP	30	192	3
TAP	30	288	2
TAP	30	288	4
STR	31	0	0
SCR	31	0	0	96	96	3
TAP	31	0	7
TAP	31	192	4
TAP	31	288	3
TAP	31	288	5
TAP	32	0	7
TAP	32	48	7
TAP	32	96	0
TAP	32	144	0
TAP	32	192	6
TAP	32	240	6
TAP	32	288	1
TAP	32	336	1
XTP	33	0	0
XTP	33	0	7
XTP	33	48	0
XTP	33	48	7
XTP	33	96	1
XTP	33	96	6
XTP	33	144	1
XTP	33	144	6
XTP	33	192	1
XTP	33	192	6
TAP	33	288	3
TAP	33	288	4
HLD	34	0	1	72
HLD	34	72	2	72
TAP	34	144	3
HLD	34	192	6	72
HLD	34	264	5	72
TAP	34	336	4
HLD	35	0	1	72
HLD	35	72	2	72
TAP	35	144	3
TAP	35	192	1
TAP	35	192	4
TAP	35	288	3
TAP	35	288	6
TAP	36	0	6
TAP	36	0	7
TAP	36	96	4
TAP	36	96	5
TAP	36	192	2
TAP	36	192	3
STR	36	288	0
SCL	36	288	0	96	96	5
STR	36	288	1
SCR	36	288	1	96	96	4
BRK	37	192	2
BRK	37	192	7
TAP	37	288	3
TAP	37	288	4
HLD	38	0	6	72
HLD	38	72	5	72
TAP	38	144	4
HLD	38	192	1	72
HLD	38	264	2	72
TAP	38	336	3
HLD	39	0	6	72
HLD	39	72	5	72
TAP	39	144	4
TAP	39	192	3
TAP	39	192	6
TAP	39	288	0
TAP	39	288	5
STR	40	0	7
SSR	40	0	7	96	192	3
HLD	40	288	0	96
BRK	41	0	7
TAP	41	192	2
TAP	41	192	5
TAP	41	288	3
TAP	41	288	4
HLD	42	0	6	72
HLD	42	72	5	72
TAP	42	144	4
HLD	42	192	1	72
HLD	42	264	2	72
TAP	42	336	3
HLD	43	0	6	72
HLD	43	72	5	72
TAP	43	144	4
TAP	43	192	3
TAP	43	192	6
TAP	43	288	1
TAP	43	288	4
TAP	44	0	0
TAP	44	0	1
TAP	44	96	2
TAP	44	96	3
TAP	44	192	4
TAP	44	192	5
STR	44	288	6
SCL	44	288	6	96	96	3
STR	44	288	7
SCR	44	288	7	96	96	2
BRK	45	192	0
BRK	45	192	5
TAP	45	288	3
TAP	45	288	4
HLD	46	0	1	72
HLD	46	72	2	72
TAP	46	144	3
TAP	46	240	1
TAP	46	240	4
TAP	46	336	3
STR	46	336	5
SCR	46	336	5	96	144	2
TAP	47	288	0
TAP	47	288	1
STR	47	336	0
SI_	47	336	0	96	48	3
STR	47	336	1
SI_	47	336	1	96	48	3
STR	48	144	6
SI_	48	144	6	96	48	4
STR	48	144	7
SI_	48	144	7	96	48	4
STR	48	336	0
SI_	48	336	0	96	48	3
STR	48	336	7
SI_	48	336	7	96	48	4
TAP	49	144	0
TAP	49	144	7
TAP	49	240	3
TAP	49	240	4
HLD	49	336	1	240
HLD	49	336	6	240
TAP	50	288	3
TAP	50	288	4
STR	51	0	5
SI_	51	0	5	96	48	2
STR	51	192	1
SI_	51	192	1	96	48	5
HLD	52	0	7	192
TAP	52	96	5
HLD	52	192	0	192
TAP	52	288	2
TAP	53	0	7
TAP	53	48	7
TAP	53	96	1
TAP	53	144	1
STR	53	192	4
SCR	53	192	4	96	96	7
HLD	54	0	0	192
TAP	54	192	3
TAP	54	288	4
TAP	54	288	6
TAP	55	0	6
HLD	55	0	7	72
HLD	55	72	5	72
TAP	55	144	4
TAP	55	192	3
TAP	55	192	6
TAP	55	288	2
TAP	55	288	4
STR	56	0	1
SLR	56	0	1	96	96	5
STR	56	192	7
SI_	56	192	7	96	48	3
TAP	56	336	1
HLD	57	0	1	72
HLD	57	72	2	72
TAP	57	144	3
STR	57	192	3
SI_	57	192	3	96	48	0
HLD	58	0	7	1728
TTP	59	0	5	E	0	M1
TTP	59	96	3	E	0	M1
TTP	59	192	5	B	0	M1
TTP	59	288	4	E	0	M1
TTP	60	0	5	E	0	M1
TTP	60	96	3	E	0	M1
TTP	60	192	5	B	0	M1
TTP	60	288	4	E	0	M1
TTP	61	0	5	E	0	M1
TTP	61	96	3	E	0	M1
TTP	61	192	5	B	0	M1
TTP	61	288	4	E	0	M1
TTP	62	0	0	C	0	M1
HLD	62	192	0	1536
TTP	63	0	3	E	0	M1
TTP	63	96	5	E	0	M1
TTP	63	192	2	B	0	M1
TTP	63	288	4	E	0	M1
TTP	64	0	3	E	0	M1
TTP	64	96	5	E	0	M1
TTP	64	192	2	B	0	M1
TTP	64	288	4	E	0	M1
TTP	65	0	3	E	0	M1
TTP	65	96	5	E	0	M1
TTP	65	192	2	B	0	M1
TTP	65	288	4	E	0	M1
TTP	66	0	0	C	0	M1
STR	66	192	7
SI_	66	192	7	96	96	4
TAP	67	0	3
TAP	67	96	2
TAP	67	96	3
TAP	67	192	4
TAP	67	288	4
TAP	67	288	5
TAP	68	0	3
TAP	68	96	2
TAP	68	96	3
TAP	68	192	4
TAP	68	288	4
TAP	68	288	5
TAP	69	0	3
TAP	69	96	1
TAP	69	96	3
TAP	69	192	4
TAP	69	288	4
TAP	69	288	6
TAP	70	0	3
TAP	70	48	3
TAP	70	96	4
TAP	70	144	4
TAP	70	192	2
TAP	70	192	4
TAP	70	288	4
TAP	70	288	5
TAP	71	0	6
TAP	71	0	7
TAP	71	96	0
TAP	71	96	1
TAP	71	192	2
TAP	71	192	3
STR	71	288	4
SCL	71	288	4	96	192	5
TAP	71	288	5
TAP	72	288	0
TAP	72	288	7
HLD	73	0	6	72
HLD	73	72	5	72
TAP	73	144	4
HLD	73	192	2	72
HLD	73	264	1	72
TAP	73	336	0
HLD	74	0	5	72
HLD	74	72	6	72
TAP	74	144	7
TAP	74	192	1
TAP	74	192	6
TAP	74	288	3
TAP	74	288	4
TAP	75	0	0
TAP	75	0	1
TAP	75	96	2
TAP	75	96	3
TAP	75	192	4
TAP	75	192	5
STR	75	288	6
SUR	75	288	6	96	96	3
STR	75	288	7
SUL	75	288	7	96	96	2
BRK	76	192	0
BRK	76	192	5
TAP	76	288	3
TAP	76	288	4
HLD	77	0	1	72
HLD	77	72	2	72
TAP	77	144	3
HLD	77	192	5	72
HLD	77	264	6	72
TAP	77	336	7
HLD	78	0	2	72
HLD	78	72	1	72
TAP	78	144	0
TAP	78	192	1
TAP	78	192	6
TAP	78	288	2
TAP	78	288	7
STR	79	0	0
SSL	79	0	0	96	192	4
HLD	79	288	7	96
BRK	80	0	0
TAP	80	192	2
TAP	80	192	5
TAP	80	288	3
TAP	80	288	4
HLD	81	0	1	72
HLD	81	72	2	72
TAP	81	144	3
HLD	81	192	5	72
HLD	81	264	6	72
TAP	81	336	7
HLD	82	0	2	72
HLD	82	72	1	72
TAP	82	144	0
TAP	82	192	1
TAP	82	192	7
TAP	82	288	3
TAP	82	288	6
TAP	83	0	6
TAP	83	0	7
TAP	83	96	4
TAP	83	96	5
TAP	83	192	2
TAP	83	192	3
STR	83	288	0
SCL	83	288	0	96	96	5
STR	83	288	1
SUL	83	288	1	96	96	4
BRK	84	192	2
BRK	84	192	7
TAP	84	288	3
TAP	84	288	4
HLD	85	0	6	72
HLD	85	72	5	72
TAP	85	144	4
TAP	85	240	3
TAP	85	240	6
STR	85	336	2
SCL	85	336	2	96	144	5
TAP	85	336	4
TAP	86	288	6
TAP	86	288	7
STR	86	336	6
SI_	86	336	6	96	48	4
STR	86	336	7
SI_	86	336	7	96	48	4
STR	87	144	0
SI_	87	144	0	96	48	3
STR	87	144	1
SI_	87	144	1	96	48	3
STR	87	336	0
SI_	87	336	0	96	48	3
STR	87	336	7
SI_	87	336	7	96	48	4
TAP	88	144	0
TAP	88	144	7
TAP	88	240	3
TAP	88	240	4
TAP	88	336	1
TAP	88	336	6
HLD	89	0	6	72
HLD	89	72	5	72
TAP	89	144	4
HLD	89	192	4	72
HLD	89	264	5	72
TAP	89	336	6
HLD	90	0	1	72
HLD	90	72	2	72
TAP	90	144	3
HLD	90	192	3	72
HLD	90	264	2	72
TAP	90	336	1
STR	91	0	1
SI_	91	0	1	96	48	5
BRK	91	192	3
BRK	91	192	7

T_REC_TAP	302
T_REC_BRK	14
T_REC_XTP	12
T_REC_HLD	84
T_REC_XHO	0
T_REC_STR	43
T_REC_BST	0
T_REC_XST	0
T_REC_TTP	35
T_REC_THO	1
T_REC_SLD	43
T_REC_ALL	534
T_NUM_TAP	392
T_NUM_BRK	14
T_NUM_HLD	85
T_NUM_SLD	43
T_NUM_ALL	534
T_JUDGE_TAP	406
T_JUDGE_HLD	250
T_JUDGE_SLD	43
T_JUDGE_ALL	699
TTM_EACHPAIRS	114
TTM_SCR_TAP	196000
TTM_SCR_BRK	36400
TTM_SCR_HLD	85000
TTM_SCR_SLD	64500
TTM_SCR_ALL	381900
TTM_SCR_S	369100
TTM_SCR_SS	380500
TTM_RAT_ACV	10036

