VERSION	0.00.00	1.03.00
FES_MODE	0
BPM_DEF	154.000	154.000	154.000	154.000
MET_DEF	4	4
RESOLUTION	384
CLK_DEF	384
COMPATIBLE_CODE	MA2

BPM	0	0	154.000
MET	0	0	4	4

TAP	2	0	6
TAP	2	96	6
TAP	2	192	6
TAP	2	192	7
TAP	3	0	1
TAP	3	96	1
XTP	3	192	0
XTP	3	192	1
TAP	4	0	6
TAP	4	96	6
TAP	4	192	7
TAP	4	288	7
TAP	5	0	0
TAP	5	96	0
XTP	5	192	1
XTP	5	192	7
TAP	6	0	1
TAP	6	96	1
TAP	6	192	0
TAP	6	192	1
TAP	7	0	6
TAP	7	96	6
XTP	7	192	6
XTP	7	192	7
TAP	8	0	1
TAP	8	96	1
TAP	8	192	0
TAP	8	288	0
TAP	9	0	7
TAP	9	96	0
TAP	9	96	7
BRK	9	192	1
BRK	9	192	6
HLD	10	0	5	288
XTP	10	288	4
TAP	11	0	3
TAP	11	96	2
TAP	11	192	2
TAP	11	192	3
HLD	12	0	2	288
XTP	12	288	3
TAP	13	0	4
TAP	13	96	5
TAP	13	192	4
TAP	13	192	5
HLD	14	0	5	288
XTP	14	288	4
TAP	15	0	3
TAP	15	96	3
TAP	15	192	2
XTP	15	288	1
TAP	16	0	2
TAP	16	96	2
TAP	16	192	3
TAP	16	288	3
TAP	17	0	4
TAP	17	96	5
XTP	17	192	4
XTP	17	192	6
TAP	18	0	5
TAP	18	96	5
TAP	18	192	4
TAP	18	192	5
TAP	19	0	2
TAP	19	96	2
TAP	19	192	2
TAP	19	192	3
TAP	20	0	5
TAP	20	96	5
TAP	20	192	4
TAP	20	288	4
TAP	21	0	3
TAP	21	96	2
XTP	21	192	1
XTP	21	192	3
TAP	22	0	2
TAP	22	96	2
TAP	22	192	2
TAP	22	192	3
TAP	23	0	5
TAP	23	96	5
TAP	23	192	4
TAP	23	192	5
TAP	24	0	2
TAP	24	96	2
TAP	24	192	1
TAP	24	288	1
TAP	25	0	0
TAP	25	96	7
XTP	25	192	1
XTP	25	192	6
TTP	26	0	6	E	0	L1
TTP	26	192	5	B	0	L1
TTP	27	0	4	B	0	L1
TTP	28	0	3	B	0	L1
TTP	28	192	2	B	0	L1
TTP	29	0	2	E	0	L1
TTP	30	0	1	E	0	L1
TTP	30	192	2	E	0	L1
TTP	31	0	3	E	0	L1
TTP	31	192	4	E	0	L1
TTP	32	0	5	E	0	L1
TTP	32	192	6	E	0	L1
TTP	33	0	0	E	0	L1
TTP	33	0	0	C	1	L1
TAP	34	0	6
TAP	34	96	6
TAP	34	192	6
TAP	34	192	7
TAP	34	288	6
TAP	34	288	7
TAP	35	0	0
TAP	35	96	0
TAP	35	192	1
TAP	35	192	7
TAP	36	0	2
TAP	36	96	3
TAP	36	192	4
TAP	36	288	5
TAP	37	0	3
TAP	37	0	4
TAP	37	96	2
TAP	37	96	5
XTP	37	192	1
XTP	37	192	6
TAP	38	0	1
TAP	38	96	1
TAP	38	192	0
TAP	38	192	1
TAP	38	288	0
TAP	38	288	1
TAP	39	0	7
TAP	39	96	7
TAP	39	192	0
TAP	39	192	6
STR	40	0	1
SCR	40	0	1	96	144	4
STR	41	0	5
SCL	41	0	5	96	144	2
TAP	42	0	1
TAP	42	96	1
TAP	42	192	0
TAP	42	192	1
TAP	42	288	0
TAP	42	288	1
TAP	43	0	7
TAP	43	96	7
TAP	43	192	0
TAP	43	192	6
TAP	44	0	5
TAP	44	96	4
TAP	44	192	3
TAP	44	288	2
TAP	45	0	3
TAP	45	0	4
TAP	45	96	2
TAP	45	96	5
XTP	45	192	1
XTP	45	192	6
TAP	46	0	1
TAP	46	96	1
TAP	46	192	0
TAP	46	192	1
TAP	46	288	0
TAP	46	288	1
TAP	47	0	7
TAP	47	96	0
TAP	47	96	6
XTP	47	288	6
XTP	47	336	6
TAP	48	48	7
TAP	48	144	7
TAP	48	240	0
TAP	48	336	0
TAP	49	48	1
TAP	49	144	1
TAP	49	240	0
TAP	49	240	7
BRK	49	336	1
BRK	49	336	6
STR	51	0	6
SCL	51	0	6	96	144	3
TAP	52	0	2
TAP	52	96	2
TAP	52	192	1
TAP	52	288	1
TAP	53	0	0
TAP	53	0	7
TAP	53	96	0
TAP	53	96	7
XTP	53	192	1
XTP	53	192	6
STR	54	0	0
SI_	54	0	0	96	144	5
STR	54	0	1
SI_	54	0	1	96	144	4
STR	55	0	6
SI_	55	0	6	96	144	3
STR	55	0	7
SI_	55	0	7	96	144	2
TAP	56	0	1
TAP	56	96	1
TAP	56	192	0
TAP	56	288	0
TAP	57	0	7
TAP	57	96	7
TAP	57	192	0
TAP	57	192	7
TAP	57	288	0
TAP	57	288	7
BRK	58	0	1
BRK	58	0	6
HLD	59	0	5	384
HLD	60	0	4	384
HLD	61	0	3	384
TAP	62	0	2
XTP	62	192	2
XTP	62	192	3
HLD	63	0	2	384
HLD	64	0	3	384
HLD	65	0	4	384
TAP	66	0	5
XTP	66	192	6
XTP	66	288	6
TAP	67	0	5
TAP	67	96	5
TAP	67	192	5
TAP	67	288	5
TAP	68	0	4
TAP	68	96	4
TAP	68	192	4
TAP	68	288	4
TAP	69	0	3
TAP	69	96	3
TAP	69	192	3
TAP	69	288	3
TAP	70	0	2
TAP	70	96	2
XTP	70	192	1
XTP	70	192	3
TAP	71	0	2
TAP	71	96	2
STR	71	192	3
SI_	71	192	3	96	144	0
STR	71	192	4
SI_	71	192	4	96	144	7
XTP	72	192	1
XTP	72	192	6
TAP	73	0	6
TAP	73	96	6
TAP	73	96	7
TAP	73	192	1
TAP	73	288	0
TAP	73	288	1
TAP	74	0	2
TAP	74	96	2
TAP	74	96	3
TAP	74	192	1
TAP	74	192	4
TAP	75	0	0
TAP	75	96	1
TAP	75	192	2
TAP	75	288	3
TAP	76	0	3
TAP	76	0	4
TAP	76	96	2
TAP	76	96	5
XTP	76	192	1
XTP	76	192	6
TAP	77	0	1
TAP	77	96	0
TAP	77	96	1
TAP	77	192	6
TAP	77	288	6
TAP	77	288	7
TAP	78	0	0
TAP	78	96	0
TAP	78	96	7
XTP	78	192	1
XTP	78	192	6
STR	79	0	2
SCL	79	0	2	96	144	7
STR	80	0	6
SCL	80	0	6	96	144	3
TAP	81	0	1
TAP	81	96	0
TAP	81	96	1
TAP	81	192	6
TAP	81	288	6
TAP	81	288	7
TAP	82	0	5
TAP	82	96	4
TAP	82	96	5
TAP	82	192	3
TAP	82	192	6
TAP	83	0	7
TAP	83	96	6
TAP	83	192	5
TAP	83	288	4
TAP	84	0	3
TAP	84	0	4
TAP	84	96	2
TAP	84	96	5
XTP	84	192	1
XTP	84	192	6
TAP	85	0	1
TAP	85	96	0
TAP	85	96	1
TAP	85	192	6
TAP	85	288	6
TAP	85	288	7
TAP	86	0	0
TAP	86	96	1
TAP	86	96	6
XTP	86	288	7
XTP	86	336	7
TAP	87	48	1
TAP	87	144	0
TAP	87	144	1
TAP	87	240	6
TAP	87	336	6
TAP	87	336	7
TAP	88	48	0
TAP	88	144	0
TAP	88	144	7
TAP	88	240	1
TAP	88	240	6
BRK	88	336	2
BRK	88	336	5
TTP	89	192	6	B	0	L1
TTP	90	0	0	C	0	L1
TTP	90	192	2	B	0	L1
TTP	91	0	1	B	0	L1
TTP	91	192	0	C	0	L1
TTP	91	192	2	B	0	L1
TTP	91	192	5	B	0	L1

T_REC_TAP	236
T_REC_BRK	8
T_REC_XTP	40
T_REC_HLD	9
T_REC_XHO	0
T_REC_STR	11
T_REC_BST	0
T_REC_XST	0
T_REC_TTP	21
T_REC_THO	0
T_REC_SLD	11
T_REC_ALL	336
T_NUM_TAP	308
T_NUM_BRK	8
T_NUM_HLD	9
T_NUM_SLD	11
T_NUM_ALL	336
T_JUDGE_TAP	316
T_JUDGE_HLD	66
T_JUDGE_SLD	11
T_JUDGE_ALL	393
TTM_EACHPAIRS	74
TTM_SCR_TAP	154000
TTM_SCR_BRK	20800
TTM_SCR_HLD	9000
TTM_SCR_SLD	16500
TTM_SCR_ALL	200300
TTM_SCR_S	193550
TTM_SCR_SS	199500
TTM_RAT_ACV	10040

