VERSION	0.00.00	1.03.00
FES_MODE	0
BPM_DEF	154.000	154.000	154.000	154.000
MET_DEF	4	4
RESOLUTION	384
CLK_DEF	384
COMPATIBLE_CODE	MA2

BPM	0	0	154.000
MET	0	0	4	4

TAP	6	0	0
TAP	7	0	0
TAP	8	0	7
BRK	9	0	7
TAP	10	0	0
TAP	11	0	0
TAP	12	0	1
TAP	12	192	1
TAP	13	0	1
TAP	14	0	2
TAP	15	0	2
TAP	16	0	3
TAP	16	192	3
HLD	17	0	3	192
HLD	17	0	4	192
TAP	18	0	4
TAP	19	0	4
TAP	20	0	5
TAP	20	192	5
TAP	21	0	5
TAP	22	0	6
TAP	23	0	6
TAP	24	0	7
TAP	24	192	7
TAP	25	0	0
TAP	25	0	7
TTP	26	0	1	B	0	L1
TTP	27	0	2	B	0	L1
TTP	28	0	3	B	0	L1
TTP	29	0	4	B	0	L1
TTP	30	0	5	B	0	L1
TTP	31	0	6	B	0	L1
THO	32	0	0	384	C	1	L1
TAP	34	0	7
TAP	34	192	7
TAP	35	0	6
TAP	35	192	6
TAP	36	0	5
TAP	36	96	5
TAP	36	192	5
TAP	37	0	4
TAP	37	96	4
BRK	37	192	4
TAP	38	0	3
TAP	38	192	3
TAP	39	0	2
TAP	39	192	2
STR	40	0	1
SI_	40	0	1	96	288	5
TAP	42	0	7
TAP	42	192	7
TAP	43	0	0
TAP	43	192	0
TAP	44	0	1
TAP	44	96	1
TAP	44	192	1
TAP	45	0	2
TAP	45	0	3
TAP	45	96	2
TAP	45	96	3
BRK	45	192	2
BRK	45	192	3
TAP	46	0	4
TAP	46	192	4
TAP	47	0	5
TAP	47	192	5
XTP	48	0	6
XTP	48	0	7
XTP	48	192	6
XTP	48	192	7
XTP	49	0	0
XTP	49	0	1
XTP	49	192	0
XTP	49	192	1
XST	50	0	7
SI_	50	0	7	96	288	3
STR	52	0	0
SI_	52	0	0	96	288	4
HLD	54	0	5	384
HLD	56	0	6	384
BRK	58	0	0
BRK	58	0	7
STR	59	0	7
SI_	59	0	7	96	288	3
TAP	61	0	2
TAP	62	0	1
STR	63	0	0
SI_	63	0	0	96	288	4
HLD	65	0	3	384
HLD	65	0	4	384
TTP	67	0	3	B	0	L1
TTP	67	0	4	B	0	L1
TTP	68	0	2	B	0	L1
TTP	69	0	3	B	0	L1
TTP	69	0	4	B	0	L1
TTP	70	0	5	B	0	L1
THO	71	0	0	384	C	1	L1
TAP	73	0	6
TAP	73	0	7
TAP	73	192	6
TAP	73	192	7
TAP	74	0	4
TAP	74	0	5
TAP	74	192	4
TAP	74	192	5
TAP	75	0	3
TAP	75	96	3
TAP	75	192	3
TAP	76	0	4
TAP	76	96	4
BRK	76	192	4
TAP	77	0	2
TAP	77	0	3
TAP	77	192	2
TAP	77	192	3
TAP	78	0	0
TAP	78	0	1
TAP	78	192	0
TAP	78	192	1
STR	79	0	7
SI_	79	0	7	96	288	3
TAP	81	0	0
TAP	81	0	1
TAP	81	192	0
TAP	81	192	1
TAP	82	0	2
TAP	82	0	3
TAP	82	192	2
TAP	82	192	3
TAP	83	0	4
TAP	83	96	4
TAP	83	192	4
TAP	84	0	3
TAP	84	96	3
BRK	84	192	3
BRK	84	192	4
HLD	85	0	4	192
HLD	85	0	5	192
HLD	86	0	6	192
HLD	86	0	7	192
XTP	87	0	0
XTP	87	192	7
XTP	88	0	0
XTP	88	0	1
XTP	88	192	6
XTP	88	192	7
XST	89	0	0
SI_	89	0	0	96	288	4
TAP	91	0	3
TAP	91	96	3
XTP	91	192	3
XTP	91	192	4

T_REC_TAP	89
T_REC_BRK	9
T_REC_XTP	16
T_REC_HLD	10
T_REC_XHO	0
T_REC_STR	5
T_REC_BST	0
T_REC_XST	2
T_REC_TTP	12
T_REC_THO	2
T_REC_SLD	7
T_REC_ALL	152
T_NUM_TAP	124
T_NUM_BRK	9
T_NUM_HLD	12
T_NUM_SLD	7
T_NUM_ALL	152
T_JUDGE_TAP	133
T_JUDGE_HLD	72
T_JUDGE_SLD	7
T_JUDGE_ALL	212
TTM_EACHPAIRS	29
TTM_SCR_TAP	62000
TTM_SCR_BRK	23400
TTM_SCR_HLD	12000
TTM_SCR_SLD	10500
TTM_SCR_ALL	107900
TTM_SCR_S	103800
TTM_SCR_SS	107000
TTM_RAT_ACV	10084

