VERSION	0.00.00	1.03.00
FES_MODE	0
BPM_DEF	132.000	132.000	132.000	132.000
MET_DEF	4	4
RESOLUTION	384
CLK_DEF	384
COMPATIBLE_CODE	MA2

BPM	0	0	132.000
MET	0	0	4	4
CLK	0	0
CLK	0	96
CLK	0	192
CLK	0	288

STR	1	288	4
SCR	1	288	4	96	288	3
TAP	2	0	3
TAP	3	0	3
TAP	3	32	3
TAP	3	64	3
TAP	3	96	4
TAP	3	128	4
TAP	3	160	4
TAP	3	192	2
TAP	3	192	5
STR	3	288	3
SCL	3	288	3	96	288	4
TAP	4	0	4
TAP	5	0	4
TAP	5	32	4
TAP	5	64	4
TAP	5	96	3
TAP	5	128	3
TAP	5	160	3
TAP	5	192	2
TAP	5	192	5
STR	5	288	4
SCR	5	288	4	96	288	3
TAP	6	0	3
TAP	6	96	3
TAP	6	192	4
TAP	6	288	4
TAP	7	0	3
TAP	7	32	3
TAP	7	64	3
TAP	7	96	4
TAP	7	128	4
TAP	7	160	4
TAP	7	192	2
TAP	7	192	5
STR	7	288	3
SCL	7	288	3	96	288	4
TAP	8	0	4
TAP	8	96	4
TAP	8	192	3
TAP	8	288	3
TAP	9	0	4
TAP	9	32	4
TAP	9	64	4
TAP	9	96	3
TAP	9	128	3
TAP	9	160	3
TAP	9	192	7
TAP	9	224	7
TAP	9	256	7
BRK	9	288	0
BRK	9	288	6
XTP	10	0	1
XTP	10	0	4
TAP	10	48	2
TAP	10	72	3
TAP	10	120	3
TAP	10	144	2
TAP	10	192	1
TAP	10	240	0
TAP	10	288	7
TAP	10	336	6
HLD	11	0	5	96
TAP	11	48	6
HLD	11	96	3	96
TAP	11	144	7
HLD	11	192	4	96
TAP	11	240	0
HLD	11	288	2	96
TAP	11	336	1
STR	12	0	0
SCL	12	0	0	96	96	2
TTP	12	96	0	C	0	M1
STR	12	192	7
SCR	12	192	7	96	96	5
TTP	12	288	0	C	0	M1
STR	13	0	0
SCL	13	0	0	96	96	2
TTP	13	96	0	C	0	M1
TAP	13	192	0
BRK	13	288	2
BRK	13	288	7
XTP	14	0	3
XTP	14	0	6
TAP	14	48	5
TAP	14	72	4
TAP	14	120	4
TAP	14	144	5
TAP	14	192	6
TAP	14	240	7
TAP	14	288	0
TAP	14	336	1
HLD	15	0	2	96
TAP	15	48	1
HLD	15	96	4	96
TAP	15	144	0
HLD	15	192	3	96
TAP	15	240	7
HLD	15	288	5	96
TAP	15	336	6
STR	16	0	7
SCR	16	0	7	96	96	5
TTP	16	96	0	C	0	M1
STR	16	192	0
SCL	16	192	0	96	96	2
TTP	16	288	0	C	0	M1
STR	17	0	7
SCR	17	0	7	96	96	5
TTP	17	96	0	C	0	M1
TAP	17	192	7
TAP	17	224	7
TAP	17	256	7
BRK	17	288	0
BRK	17	288	6
HLD	18	0	6	72
HLD	18	72	5	72
TAP	18	144	4
TAP	18	192	1
TAP	18	192	3
TAP	18	240	2
TAP	18	288	3
TAP	18	288	6
TAP	18	336	5
TAP	19	0	1
TAP	19	0	4
TAP	19	48	2
TAP	19	96	3
TAP	19	96	4
TAP	19	144	5
TAP	19	168	4
TAP	19	192	5
TAP	19	240	3
TAP	19	264	3
TAP	19	312	2
TAP	19	312	4
HLD	20	0	1	72
HLD	20	72	2	72
TAP	20	144	3
TAP	20	192	5
TAP	20	240	4
TAP	20	240	6
TAP	20	288	4
TAP	20	288	6
HLD	21	0	6	72
HLD	21	72	5	72
TAP	21	144	4
TAP	21	192	2
TAP	21	240	1
TAP	21	240	3
TAP	21	288	1
TAP	21	288	3
HLD	22	0	1	72
HLD	22	72	2	72
TAP	22	144	3
TAP	22	192	4
TAP	22	192	6
TAP	22	240	5
TAP	22	288	1
TAP	22	288	4
TAP	22	336	2
TAP	23	0	3
TAP	23	0	6
TAP	23	48	5
TAP	23	96	3
TAP	23	96	4
TAP	23	144	2
TAP	23	168	3
TAP	23	192	2
TAP	23	240	4
TAP	23	264	4
TAP	23	312	3
TAP	23	312	5
HLD	24	0	6	72
HLD	24	72	5	72
TAP	24	144	4
TAP	24	192	2
TAP	24	240	1
TAP	24	240	3
TAP	24	288	1
TAP	24	288	3
HLD	25	0	1	72
HLD	25	72	2	72
TAP	25	144	3
TAP	25	192	5
TAP	25	240	4
TAP	25	240	6
STR	25	288	3
SCL	25	288	3	96	192	0
STR	25	288	7
SV_	25	288	7	96	192	4
STR	26	288	0
SV_	26	288	0	96	192	3
STR	26	288	4
SCR	26	288	4	96	192	7
STR	27	288	3
SCL	27	288	3	96	192	0
STR	27	288	7
SUR	27	288	7	96	192	4
STR	28	288	0
SUL	28	288	0	96	192	3
STR	28	288	4
SCR	28	288	4	96	192	7
TAP	29	288	3
STR	29	288	7
SCL	29	288	7	96	192	2
HLD	30	0	1	192
STR	30	288	0
SCR	30	288	0	96	192	5
TAP	30	288	4
HLD	31	0	6	192
TAP	31	288	3
STR	31	288	7
SCR	31	288	7	96	192	4
HLD	32	0	1	192
STR	32	288	0
SCL	32	288	0	96	192	3
TAP	32	288	4
HLD	33	0	6	192
TAP	33	288	0
TAP	33	288	7
XTP	34	0	6
TAP	34	32	6
TAP	34	64	6
TAP	34	96	2
TAP	34	128	2
TAP	34	160	2
TAP	34	192	4
TAP	34	224	4
TAP	34	256	4
TTP	34	288	0	C	1	M1
TTP	34	288	2	B	0	M1
TTP	34	288	5	B	0	M1
XTP	35	0	0
XTP	35	0	7
STR	35	48	1
SI_	35	48	1	96	48	5
TAP	35	72	0
TAP	35	96	2
TAP	35	144	1
TAP	35	192	6
TAP	35	216	6
TAP	35	264	3
TAP	35	288	4
TAP	35	312	3
TAP	35	360	5
TAP	36	0	4
STR	36	0	5
SCL	36	0	5	96	48	2
TAP	36	48	6
TAP	36	96	0
TAP	36	96	5
TAP	36	144	1
STR	36	192	2
SCR	36	192	2	96	48	5
TAP	36	192	3
TAP	36	240	1
TAP	36	288	2
TAP	36	288	7
TAP	36	336	6
TAP	37	0	4
TAP	37	0	5
STR	37	48	6
SI_	37	48	6	96	48	2
TAP	37	72	7
TAP	37	96	5
TAP	37	144	6
TAP	37	192	1
TAP	37	216	1
TAP	37	264	4
TAP	37	288	3
TAP	37	312	4
TAP	37	360	6
TAP	37	360	7
TAP	38	24	1
TAP	38	48	0
STR	38	72	1
SXR	38	72	1	96	120	4
TAP	38	120	4
TAP	38	144	4
TAP	38	192	5
TAP	38	240	6
BRK	38	288	7
TAP	39	0	3
TAP	39	0	4
STR	39	48	2
SI_	39	48	2	96	48	6
TAP	39	72	3
TAP	39	96	1
TAP	39	144	2
TAP	39	192	5
TAP	39	216	5
TAP	39	264	0
TAP	39	288	7
TAP	39	312	0
TAP	39	360	6
STR	40	0	6
SCR	40	0	6	96	48	1
TAP	40	0	7
TAP	40	48	5
TAP	40	96	3
TAP	40	96	6
TAP	40	144	2
TAP	40	192	0
STR	40	192	1
SCL	40	192	1	96	48	6
TAP	40	240	2
TAP	40	288	1
TAP	40	288	4
TAP	40	336	5
HLD	41	0	3	96
HLD	41	0	6	96
TAP	41	144	4
TAP	41	144	5
TAP	41	192	3
TAP	41	192	6
TAP	41	216	3
TAP	41	216	6
TAP	41	264	1
TAP	41	264	3
TAP	41	312	0
TAP	41	312	7
TAP	41	360	4
TAP	41	360	6
XTP	42	0	5
TAP	42	32	5
TAP	42	64	5
XTP	42	96	1
TAP	42	128	1
TAP	42	160	1
XTP	42	192	0
XTP	42	192	4
XTP	42	224	0
XTP	42	224	4
XTP	42	256	0
XTP	42	256	4
BRK	42	288	1
BRK	42	288	5
XHO	43	0	3	84
XHO	43	0	4	84
XTP	43	96	2
XTP	43	96	5
XTP	43	108	1
XTP	43	108	6
XHO	43	120	0	56
XHO	43	120	7	60
XTP	43	192	1
XTP	43	192	6
XTP	43	204	2
XTP	43	204	5
XHO	43	216	3	56
XHO	43	216	4	56
XTP	43	288	2
XTP	43	288	5
XTP	43	300	1
XTP	43	300	6
XHO	43	312	0	56
XHO	43	312	7	60
XTP	44	0	1
XTP	44	0	6
XTP	44	12	2
XTP	44	12	5
XHO	44	24	3	56
XHO	44	24	4	56
XTP	44	96	2
XTP	44	96	5
XTP	44	108	1
XTP	44	108	6
XHO	44	120	0	56
XHO	44	120	7	60
XTP	44	192	1
XTP	44	192	6
XTP	44	204	2
XTP	44	204	5
XHO	44	216	3	56
XHO	44	216	4	56
XTP	44	288	2
XTP	44	288	5
XTP	44	300	1
XTP	44	300	6
XHO	44	312	0	56
XHO	44	312	7	60
XTP	45	0	1
XTP	45	0	6
XTP	45	12	2
XTP	45	12	5
XHO	45	24	3	56
XHO	45	24	4	56
XTP	45	96	2
XTP	45	96	5
XTP	45	108	1
XTP	45	108	6
XHO	45	120	0	56
XHO	45	120	7	60
XTP	45	192	1
XTP	45	192	6
XTP	45	204	2
XTP	45	204	5
XHO	45	216	3	56
XHO	45	216	4	56
XTP	45	288	2
XTP	45	288	5
XTP	45	300	1
XTP	45	300	6
XHO	45	312	0	56
XHO	45	312	7	60
XTP	46	0	1
XTP	46	0	6
XTP	46	12	2
XTP	46	12	5
XHO	46	24	3	56
XHO	46	24	4	56
XTP	46	96	2
XTP	46	96	5
XTP	46	108	1
XTP	46	108	6
XHO	46	120	0	56
XHO	46	120	7	60
XTP	46	192	1
XTP	46	192	6
XTP	46	204	2
XTP	46	204	5
XTP	46	216	3
XTP	46	216	4
BRK	46	288	1
BRK	46	288	6
XHO	47	0	1	84
XHO	47	0	4	84
XTP	47	96	2
XTP	47	96	5
XTP	47	108	3
XTP	47	108	6
XHO	47	120	4	60
XHO	47	120	7	60
XTP	47	192	3
XTP	47	192	6
XTP	47	204	2
XTP	47	204	5
XTP	47	216	1
XTP	47	216	4
XHO	47	228	0	48
XHO	47	228	3	48
XTP	47	288	1
XTP	47	288	4
XTP	47	300	2
XTP	47	300	5
XTP	47	312	3
XTP	47	312	6
XHO	47	324	4	48
XHO	47	324	7	48
XTP	48	0	3
XTP	48	0	6
XTP	48	12	2
XTP	48	12	5
XTP	48	24	1
XTP	48	24	4
XHO	48	36	0	48
XHO	48	36	3	48
XTP	48	96	1
XTP	48	96	4
XTP	48	108	2
XTP	48	108	5
XTP	48	120	3
XTP	48	120	6
XHO	48	132	4	48
XHO	48	132	7	48
XTP	48	192	3
XTP	48	192	6
XTP	48	204	2
XTP	48	204	5
XTP	48	216	1
XTP	48	216	4
XHO	48	228	0	48
XHO	48	228	3	48
XTP	48	288	1
XTP	48	288	4
XTP	48	300	2
XTP	48	300	5
XTP	48	312	3
XTP	48	312	6
XHO	48	324	4	48
XHO	48	324	7	48
XTP	49	0	3
XTP	49	0	6
XTP	49	12	2
XTP	49	12	5
XTP	49	24	1
XTP	49	24	4
XHO	49	36	0	48
XHO	49	36	3	48
XTP	49	96	1
XTP	49	96	4
XTP	49	108	2
XTP	49	108	5
XTP	49	120	3
XTP	49	120	6
XHO	49	132	4	48
XHO	49	132	7	48
XTP	49	192	3
XTP	49	192	6
XTP	49	204	2
XTP	49	204	5
XTP	49	216	1
XTP	49	216	4
XHO	49	228	0	48
XHO	49	228	3	48
XTP	49	288	1
XTP	49	288	4
XTP	49	300	2
XTP	49	300	5
XTP	49	312	3
XTP	49	312	6
XTP	49	324	4
XTP	49	324	7
XTP	50	0	1
TAP	50	32	1
TAP	50	64	1
XTP	50	96	7
TAP	50	128	7
TAP	50	160	7
XTP	50	192	2
XTP	50	192	6
XTP	50	224	2
XTP	50	224	6
XTP	50	256	2
XTP	50	256	6
BRK	50	288	1
BRK	50	288	5
XTP	51	0	3
XTP	51	0	6
TAP	51	48	5
TAP	51	72	4
TAP	51	120	3
TAP	51	144	4
TAP	51	192	2
TAP	51	192	6
TAP	51	240	7
TAP	51	288	0
TAP	51	288	5
TAP	51	336	1
HLD	52	0	2	96
TAP	52	48	1
HLD	52	96	3	96
TAP	52	144	0
HLD	52	192	4	96
TAP	52	240	7
HLD	52	288	5	96
TAP	52	336	6
STR	53	0	7
SCR	53	0	7	96	96	5
TAP	53	48	6
TTP	53	96	0	C	1	M1
STR	53	192	0
SCL	53	192	0	96	96	2
TAP	53	240	1
TTP	53	288	0	C	1	M1
STR	54	0	7
SCR	54	0	7	96	96	5
TAP	54	48	6
TTP	54	96	0	C	1	M1
TAP	54	192	7
BRK	54	288	1
BRK	54	288	5
XTP	55	0	0
XTP	55	0	4
TAP	55	48	2
TAP	55	72	3
TAP	55	120	4
TAP	55	144	3
TAP	55	192	1
TAP	55	192	5
TAP	55	240	0
TAP	55	288	2
TAP	55	288	7
TAP	55	336	6
HLD	56	0	5	96
TAP	56	48	6
HLD	56	96	4	96
TAP	56	144	7
HLD	56	192	3	96
TAP	56	240	0
HLD	56	288	2	96
TAP	56	336	1
STR	57	0	0
SCL	57	0	0	96	96	2
TAP	57	48	1
TTP	57	96	0	C	1	M1
STR	57	192	7
SCR	57	192	7	96	96	5
TAP	57	240	6
TTP	57	288	0	C	1	M1
STR	58	0	0
SCL	58	0	0	96	96	2
TAP	58	48	1
TTP	58	96	0	C	1	M1
TAP	58	192	0
TAP	58	224	0
TAP	58	256	0
BRK	58	288	1
BRK	58	288	7
XTP	59	0	3
XTP	59	0	7
TAP	59	48	5
TAP	59	72	4
TAP	59	120	2
TAP	59	144	3
TAP	59	192	1
TAP	59	192	6
TAP	59	240	7
TAP	59	288	0
TAP	59	288	5
TAP	59	336	1
HLD	60	0	2	96
TAP	60	48	1
HLD	60	96	3	96
TAP	60	144	0
HLD	60	192	4	96
TAP	60	240	7
HLD	60	288	5	96
TAP	60	336	6
STR	61	0	7
SCR	61	0	7	96	96	5
TAP	61	48	6
TTP	61	96	0	C	1	M1
TAP	61	144	6
STR	61	192	0
SCL	61	192	0	96	96	2
TAP	61	240	1
TTP	61	288	0	C	1	M1
TAP	61	336	1
STR	62	0	7
SCR	62	0	7	96	96	5
TAP	62	48	6
TTP	62	96	0	C	1	M1
TAP	62	144	6
TAP	62	192	7
BRK	62	288	1
BRK	62	288	5
XTP	63	0	0
XTP	63	0	4
STR	63	48	2
SCL	63	48	2	96	48	7
TAP	63	72	3
TAP	63	120	5
TAP	63	144	5
TAP	63	192	6
TAP	63	240	5
TAP	63	288	0
TAP	63	288	4
TAP	63	336	5
XTP	64	0	2
XTP	64	0	6
STR	64	48	5
SCR	64	48	5	96	48	0
TAP	64	72	4
TAP	64	120	2
TAP	64	144	2
TAP	64	192	1
TAP	64	240	2
TAP	64	288	3
TAP	64	288	7
TAP	64	336	2
XTP	65	0	1
XTP	65	0	3
TAP	65	32	1
TAP	65	32	3
TAP	65	64	1
TAP	65	64	3
TTP	65	96	0	C	1	M1
TTP	65	96	1	B	0	M1
TTP	65	96	2	B	0	M1
XTP	65	192	4
XTP	65	192	6
TAP	65	224	4
TAP	65	224	6
TAP	65	256	4
TAP	65	256	6
TTP	65	288	0	C	1	M1
TTP	65	288	5	B	0	M1
TTP	65	288	6	B	0	M1
XTP	66	0	0
XTP	66	0	7
TAP	66	32	0
TAP	66	32	7
TAP	66	64	0
TAP	66	64	7
XTP	66	96	2
XTP	66	96	5
TAP	66	128	2
TAP	66	128	5
TAP	66	160	2
TAP	66	160	5
XTP	66	192	3
XTP	66	192	4
TAP	66	224	3
TAP	66	224	4
TAP	66	256	3
TAP	66	256	4
BRK	66	288	1
BRK	66	288	6

T_REC_TAP	318
T_REC_BRK	21
T_REC_XTP	167
T_REC_HLD	38
T_REC_XHO	50
T_REC_STR	41
T_REC_BST	0
T_REC_XST	0
T_REC_TTP	24
T_REC_THO	0
T_REC_SLD	41
T_REC_ALL	700
T_NUM_TAP	550
T_NUM_BRK	21
T_NUM_HLD	88
T_NUM_SLD	41
T_NUM_ALL	700
T_JUDGE_TAP	571
T_JUDGE_HLD	166
T_JUDGE_SLD	41
T_JUDGE_ALL	778
TTM_EACHPAIRS	181
TTM_SCR_TAP	275000
TTM_SCR_BRK	54600
TTM_SCR_HLD	88000
TTM_SCR_SLD	61500
TTM_SCR_ALL	479100
TTM_SCR_S	462700
TTM_SCR_SS	477000
TTM_RAT_ACV	10044

