VERSION	0.00.00	1.03.00
FES_MODE	0
BPM_DEF	132.000	132.000	132.000	132.000
MET_DEF	4	4
RESOLUTION	384
CLK_DEF	384
COMPATIBLE_CODE	MA2

BPM	0	0	132.000
MET	0	0	4	4

STR	1	288	2
SCL	1	288	2	96	192	5
XTP	2	0	5
TAP	2	288	2
TAP	2	288	4
TAP	3	0	3
TAP	3	32	3
TAP	3	64	3
TAP	3	96	4
TAP	3	128	4
TAP	3	160	4
XTP	3	192	3
STR	3	288	5
SCR	3	288	5	96	192	2
XTP	4	0	2
TAP	4	288	3
TAP	4	288	5
TAP	5	0	4
TAP	5	32	4
TAP	5	64	4
TAP	5	96	3
TAP	5	128	3
TAP	5	160	3
XTP	5	192	4
TAP	5	288	3
TAP	5	288	4
HLD	6	0	1	48
HLD	6	0	6	48
TAP	6	96	1
TAP	6	96	6
HLD	6	192	1	48
HLD	6	192	6	48
TAP	6	288	1
TAP	6	288	6
TAP	7	0	0
TAP	7	32	0
TAP	7	64	0
TAP	7	96	7
TAP	7	128	7
TAP	7	160	7
XTP	7	192	0
TAP	7	288	0
TAP	7	288	7
HLD	8	0	2	48
HLD	8	0	5	48
TTP	8	96	1	B	0	M1
TTP	8	96	6	B	0	M1
HLD	8	192	2	48
HLD	8	192	5	48
TTP	8	288	1	B	0	M1
TTP	8	288	6	B	0	M1
TAP	9	0	7
TAP	9	32	7
TAP	9	64	7
TAP	9	96	0
TAP	9	128	0
TAP	9	160	0
TAP	9	192	7
TAP	9	224	7
TAP	9	256	7
BRK	9	288	0
TAP	10	0	1
TAP	10	96	1
TAP	10	96	3
TAP	10	192	2
TAP	10	240	2
TAP	10	288	3
TAP	11	0	5
TAP	11	96	4
TAP	11	96	5
TAP	11	192	6
TAP	11	240	6
TAP	11	288	7
STR	12	0	0
SCR	12	0	0	96	144	5
TAP	12	0	5
TAP	12	192	7
TAP	12	288	7
TAP	13	0	2
STR	13	0	7
SCL	13	0	7	96	144	2
TAP	13	192	0
TAP	13	288	0
TAP	13	288	7
TAP	14	0	2
TAP	14	96	1
TAP	14	96	3
TAP	14	192	0
TAP	14	240	0
TAP	14	288	7
TAP	15	0	4
TAP	15	0	6
TAP	15	96	3
TAP	15	96	4
TAP	15	192	1
TAP	15	192	3
TAP	15	288	3
STR	15	288	4
SCR	15	288	4	96	192	3
TAP	16	288	1
TAP	16	288	6
TAP	17	0	2
TAP	17	0	3
TAP	17	96	4
TAP	17	96	5
XTP	17	192	2
XTP	17	192	5
XTP	17	224	2
XTP	17	224	5
XTP	17	256	2
XTP	17	256	5
XTP	17	288	2
XTP	17	288	5
HLD	18	0	1	72
HLD	18	72	2	72
TAP	18	144	3
TAP	18	240	2
TAP	18	240	3
TAP	18	288	2
TAP	18	288	3
HLD	19	0	4	72
HLD	19	72	3	72
TAP	19	144	2
TAP	19	240	2
TAP	19	240	3
TAP	19	288	2
TAP	19	288	3
HLD	20	0	1	72
HLD	20	72	2	72
TAP	20	144	3
TAP	20	240	1
TAP	20	240	4
TAP	20	288	1
TAP	20	288	4
HLD	21	0	2	48
HLD	21	0	3	48
HLD	21	96	3	48
HLD	21	96	4	48
HLD	21	192	2	48
HLD	21	192	3	48
TAP	21	288	1
TAP	21	288	4
HLD	22	0	6	72
HLD	22	72	5	72
TAP	22	144	4
TAP	22	240	2
TAP	22	288	1
TAP	22	288	3
HLD	23	0	1	72
HLD	23	72	2	72
TAP	23	144	3
TAP	23	240	5
TAP	23	288	4
TAP	23	288	6
HLD	24	0	5	72
HLD	24	72	6	72
TAP	24	144	7
TAP	24	240	0
TAP	24	240	5
TAP	24	288	0
TAP	24	288	5
HLD	25	0	1	48
HLD	25	0	3	48
HLD	25	96	4	48
HLD	25	96	6	48
HLD	25	192	2	48
HLD	25	192	5	48
XTP	25	288	2
XTP	25	288	5
XTP	26	0	3
STR	26	0	4
SCR	26	0	4	96	48	6
STR	26	192	2
SCL	26	192	2	96	48	0
TAP	27	0	6
TAP	27	32	6
TAP	27	64	6
TAP	27	96	7
TAP	27	128	7
TAP	27	160	7
XTP	27	192	6
TAP	27	288	4
TAP	27	288	5
STR	28	0	3
SCL	28	0	3	96	48	1
XTP	28	0	4
STR	28	192	5
SCR	28	192	5	96	48	7
TAP	29	0	1
TAP	29	32	1
TAP	29	64	1
TAP	29	96	0
TAP	29	128	0
TAP	29	160	0
XTP	29	192	1
TAP	29	288	2
TAP	29	288	3
TAP	30	0	3
STR	30	0	4
SCR	30	0	4	96	48	6
STR	30	192	2
SCL	30	192	2	96	48	0
TAP	31	0	6
TAP	31	32	6
TAP	31	64	6
TAP	31	96	6
TAP	31	128	6
TAP	31	160	6
TAP	31	192	6
TAP	31	192	7
TAP	31	288	3
TAP	31	288	4
TAP	32	0	2
HLD	32	0	3	96
TTP	32	96	1	B	0	M1
TTP	32	96	1	E	0	M1
HLD	32	192	2	96
TAP	32	192	3
TTP	32	288	5	E	0	M1
TTP	32	288	5	B	0	M1
TAP	33	0	1
TAP	33	32	1
TAP	33	64	1
TAP	33	96	1
TAP	33	128	1
TAP	33	160	1
TAP	33	192	0
TAP	33	192	1
TAP	33	288	2
TAP	33	288	5
TAP	34	0	7
TAP	34	32	7
TAP	34	64	7
TAP	34	96	0
TAP	34	128	0
TAP	34	160	0
TAP	34	192	7
TAP	34	224	7
TAP	34	256	7
BRK	34	288	1
BRK	34	288	6
HLD	35	0	2	96
TAP	35	0	7
TAP	35	96	3
TAP	35	192	2
TAP	35	216	3
TAP	35	264	2
TAP	35	264	3
TAP	35	312	1
TAP	35	312	4
STR	35	360	1
SCR	35	360	1	96	168	6
TAP	35	360	4
TAP	36	96	7
TAP	36	192	7
TAP	36	288	7
TAP	37	0	0
HLD	37	0	5	96
TAP	37	96	4
TAP	37	192	5
TAP	37	216	4
TAP	37	264	4
TAP	37	264	5
TAP	37	312	3
TAP	37	312	6
TAP	37	360	3
STR	37	360	6
SCL	37	360	6	96	168	1
TAP	38	96	0
TAP	38	192	0
BRK	38	288	0
BRK	38	288	7
TAP	39	0	4
HLD	39	0	6	96
TAP	39	96	7
TAP	39	192	1
TAP	39	216	0
TAP	39	264	0
TAP	39	264	1
TAP	39	312	2
TAP	39	312	7
STR	39	360	3
SCL	39	360	3	96	168	6
TAP	39	360	6
TAP	40	96	5
TAP	40	192	5
STR	40	288	4
SI_	40	288	4	96	48	7
TAP	41	0	3
XTP	41	96	1
XTP	41	96	6
TAP	41	192	5
TAP	41	216	4
TAP	41	264	3
TAP	41	264	6
TAP	41	312	3
TAP	41	312	6
TAP	41	360	2
TAP	41	360	7
TAP	42	24	2
TAP	42	24	7
TAP	42	72	0
HLD	42	72	1	120
XTP	42	192	6
XTP	42	224	6
XTP	42	256	6
BRK	42	288	6
BRK	42	288	7
STR	43	0	0
SI_	43	0	0	96	48	5
XTP	43	0	1
STR	43	96	3
SI_	43	96	3	96	48	1
STR	43	192	0
SI_	43	192	0	96	48	5
STR	43	288	3
SI_	43	288	3	96	48	1
STR	44	0	0
SI_	44	0	0	96	48	5
STR	44	96	3
SI_	44	96	3	96	48	1
TAP	44	192	6
TAP	44	240	6
TAP	44	288	6
TAP	44	288	7
TAP	45	0	0
STR	45	0	5
SI_	45	0	5	96	48	3
STR	45	96	1
SI_	45	96	1	96	48	6
STR	45	192	5
SI_	45	192	5	96	48	3
STR	45	288	1
SCL	45	288	1	96	144	3
XTP	46	0	6
TAP	46	192	0
TAP	46	192	1
TAP	46	240	2
TAP	46	240	7
BRK	46	288	3
BRK	46	288	6
STR	47	0	4
SI_	47	0	4	96	48	1
TAP	47	0	5
STR	47	96	7
SI_	47	96	7	96	48	5
STR	47	192	4
SI_	47	192	4	96	48	1
STR	47	288	6
SI_	47	288	6	96	48	4
STR	48	0	2
SI_	48	0	2	96	48	7
STR	48	96	5
SI_	48	96	5	96	48	3
HLD	48	192	2	96
XTP	48	288	7
TAP	49	0	0
STR	49	0	6
SI_	49	0	6	96	48	3
STR	49	96	0
SI_	49	96	0	96	48	5
STR	49	192	2
SI_	49	192	2	96	48	7
XTP	49	288	4
TAP	50	0	3
TAP	50	32	3
TAP	50	64	3
TAP	50	96	5
TAP	50	128	5
TAP	50	160	5
TAP	50	192	1
TAP	50	224	1
TAP	50	256	1
BRK	50	288	0
BST	50	288	1
SCR	50	288	1	96	192	5
TTP	51	0	0	C	1	M1
STR	51	288	6
SCL	51	288	6	96	192	2
TAP	51	288	7
HLD	52	0	1	192
TAP	52	288	1
TAP	52	288	7
TAP	53	0	2
TAP	53	48	3
HLD	53	96	1	96
TAP	53	96	4
TAP	53	192	0
TAP	53	288	2
TAP	53	288	3
TAP	54	0	5
TAP	54	48	4
TAP	54	96	3
HLD	54	96	6	96
TAP	54	192	7
TAP	54	288	4
TAP	54	288	5
HLD	55	0	2	96
TAP	55	0	3
TAP	55	96	1
TAP	55	192	1
TAP	55	240	1
TAP	55	288	0
TAP	55	288	1
HLD	56	0	6	96
TAP	56	0	7
TAP	56	96	5
TAP	56	192	5
TAP	56	240	5
TAP	56	288	4
TAP	56	288	5
STR	57	0	2
SI_	57	0	2	96	48	7
HLD	57	0	3	96
HLD	57	192	4	96
STR	57	192	5
SI_	57	192	5	96	48	0
TAP	58	0	1
TAP	58	0	3
TAP	58	96	3
TAP	58	96	4
TAP	58	192	2
TAP	58	192	5
TAP	58	224	2
TAP	58	224	5
TAP	58	256	2
TAP	58	256	5
BRK	58	288	2
BRK	58	288	5
TAP	59	0	0
TAP	59	0	1
TAP	59	48	1
TAP	59	72	0
TAP	59	120	2
TAP	59	120	7
TAP	59	168	3
HLD	59	168	6	120
TAP	59	240	7
TAP	59	288	7
STR	60	0	0
SCR	60	0	0	96	96	3
TAP	60	96	5
STR	60	192	4
SCR	60	192	4	96	96	7
STR	60	288	1
SUR	60	288	1	96	192	4
TAP	61	192	6
HLD	61	288	3	96
STR	61	288	6
SUL	61	288	6	96	192	3
TAP	62	192	1
TAP	62	288	0
TAP	62	288	1
TAP	63	0	6
TAP	63	0	7
TAP	63	48	6
TAP	63	72	7
TAP	63	120	0
TAP	63	120	5
HLD	63	168	1	120
TAP	63	168	4
TAP	63	240	0
TAP	63	288	0
XHO	64	0	6	96
XHO	64	0	7	96
TAP	64	192	4
TAP	64	192	5
TAP	64	288	3
TAP	64	288	4
BRK	65	0	1
BRK	65	0	3
TAP	65	32	1
TAP	65	32	3
TAP	65	64	1
TAP	65	64	3
BRK	65	192	4
BRK	65	192	6
TAP	65	224	4
TAP	65	224	6
TAP	65	256	4
TAP	65	256	6
BRK	66	0	0
BRK	66	0	7
TAP	66	32	0
TAP	66	32	7
TAP	66	64	0
TAP	66	64	7
TAP	66	96	0
TAP	66	96	7
TAP	66	128	0
TAP	66	128	7
TAP	66	160	0
TAP	66	160	7
TAP	66	192	1
TAP	66	192	6
TAP	66	224	1
TAP	66	224	6
TAP	66	256	1
TAP	66	256	6
TTP	66	288	0	C	1	M1
TTP	66	288	2	B	0	M1
TTP	66	288	5	B	0	M1

T_REC_TAP	309
T_REC_BRK	18
T_REC_XTP	28
T_REC_HLD	49
T_REC_XHO	2
T_REC_STR	41
T_REC_BST	1
T_REC_XST	0
T_REC_TTP	12
T_REC_THO	0
T_REC_SLD	42
T_REC_ALL	502
T_NUM_TAP	390
T_NUM_BRK	19
T_NUM_HLD	51
T_NUM_SLD	42
T_NUM_ALL	502
T_JUDGE_TAP	409
T_JUDGE_HLD	87
T_JUDGE_SLD	42
T_JUDGE_ALL	538
TTM_EACHPAIRS	130
TTM_SCR_TAP	195000
TTM_SCR_BRK	49400
TTM_SCR_HLD	51000
TTM_SCR_SLD	63000
TTM_SCR_ALL	358400
TTM_SCR_S	345850
TTM_SCR_SS	356500
TTM_RAT_ACV	10053

