VERSION	0.00.00	1.03.00
FES_MODE	0
BPM_DEF	132.000	132.000	132.000	132.000
MET_DEF	4	4
RESOLUTION	384
CLK_DEF	384
COMPATIBLE_CODE	MA2

BPM	0	0	132.000
MET	0	0	4	4

HLD	2	0	2	192
HLD	2	0	3	192
HLD	3	0	3	192
HLD	3	0	4	192
HLD	4	0	4	192
HLD	4	0	5	192
TAP	5	0	6
TAP	5	192	0
TAP	5	192	7
HLD	6	0	1	192
HLD	6	0	6	192
HLD	7	0	1	192
HLD	7	0	6	192
HLD	8	0	1	192
HLD	8	0	6	192
TAP	9	0	1
TAP	9	0	6
TAP	9	96	1
TAP	9	96	6
BRK	9	192	1
BRK	9	192	6
TAP	10	0	2
TAP	10	96	2
TAP	10	192	2
TAP	10	192	3
TAP	11	0	5
TAP	11	96	5
TAP	11	192	4
TAP	11	192	5
TAP	12	0	2
TAP	12	96	2
TAP	12	192	3
TAP	12	288	3
TAP	13	0	2
TAP	13	96	2
TAP	13	192	2
TAP	13	192	3
TAP	14	0	1
TAP	14	96	1
TAP	14	192	0
TAP	14	192	1
TAP	15	0	6
TAP	15	96	6
TAP	15	192	6
TAP	15	192	7
TAP	16	0	0
TAP	16	96	0
TAP	16	192	7
TAP	16	288	7
HLD	17	0	0	96
HLD	17	0	7	96
XTP	17	192	1
XTP	17	192	6
HLD	18	0	2	192
HLD	18	0	3	192
HLD	19	0	2	192
HLD	19	0	3	192
HLD	20	0	2	192
HLD	20	192	3	192
TAP	21	0	2
TAP	21	96	2
TAP	21	192	2
TAP	21	192	3
HLD	22	0	4	96
HLD	22	0	5	96
TAP	22	192	4
TAP	22	192	5
HLD	23	0	2	96
HLD	23	0	3	96
TAP	23	192	2
TAP	23	192	3
HLD	24	0	4	96
HLD	24	0	5	96
TAP	24	192	3
TAP	24	192	6
TAP	25	0	3
TAP	25	0	4
TAP	25	96	3
TAP	25	96	4
XTP	25	192	2
XTP	25	192	5
STR	26	0	4
SI_	26	0	4	96	192	7
STR	27	0	0
SI_	27	0	0	96	192	3
STR	28	0	4
SCR	28	0	4	96	192	7
TAP	29	0	0
TAP	29	96	7
TAP	29	192	1
TAP	29	192	6
TTP	30	0	2	E	0	L1
TTP	30	96	2	B	0	L1
TTP	30	192	3	B	0	L1
TTP	31	0	6	E	0	L1
TTP	31	96	5	B	0	L1
TTP	31	192	4	B	0	L1
TTP	32	0	3	E	0	L1
TTP	32	96	2	B	0	L1
TTP	32	192	1	B	0	L1
TTP	33	0	5	B	0	L1
TTP	33	96	6	B	0	L1
TTP	33	192	7	E	0	L1
HLD	34	0	0	192
HLD	34	0	7	192
BRK	34	288	1
BRK	34	288	6
TAP	35	0	2
TAP	35	96	2
TAP	35	96	3
TAP	35	192	1
TAP	35	288	0
TAP	35	288	1
TAP	36	0	2
TAP	36	96	2
TAP	36	96	3
TAP	36	192	1
TAP	36	192	4
TAP	37	0	6
TAP	37	96	6
TAP	37	96	7
TAP	37	192	5
TAP	37	288	4
TAP	37	288	5
TAP	38	0	6
TAP	38	96	6
TAP	38	96	7
TAP	38	192	0
TAP	38	192	5
TAP	39	0	2
TAP	39	0	3
TAP	39	96	2
TAP	39	96	3
TAP	39	192	1
TAP	39	192	4
TAP	40	0	4
TAP	40	0	5
TAP	40	96	4
TAP	40	96	5
TAP	40	192	3
TAP	40	192	6
TAP	41	0	1
TAP	41	96	0
TAP	41	192	6
TAP	41	288	7
TAP	42	0	0
TAP	42	0	7
TAP	42	96	0
TAP	42	96	7
XTP	42	192	1
XTP	42	192	6
TAP	43	0	2
TAP	43	0	5
TAP	43	96	0
TAP	43	96	7
TAP	43	192	2
TAP	43	192	5
TAP	43	288	0
TAP	43	288	7
TAP	44	0	2
TAP	44	0	5
TAP	44	96	0
TAP	44	96	1
TAP	44	192	2
TAP	44	192	5
TAP	44	288	6
TAP	44	288	7
TAP	45	0	2
TAP	45	0	5
TAP	45	96	0
TAP	45	96	7
TAP	45	192	2
TAP	45	192	5
TAP	45	288	0
TAP	45	288	7
TAP	46	0	2
TAP	46	0	5
TAP	46	96	3
TAP	46	96	4
XTP	46	192	1
XTP	46	192	6
TAP	47	0	3
TAP	47	0	6
TAP	47	96	0
TAP	47	96	1
TAP	47	192	3
TAP	47	192	6
TAP	47	288	0
TAP	47	288	1
TAP	48	0	2
TAP	48	0	3
TAP	48	96	0
TAP	48	96	5
TAP	48	192	2
TAP	48	192	3
TAP	48	288	0
TAP	48	288	5
TAP	49	0	3
TAP	49	0	4
TAP	49	96	0
TAP	49	96	1
TAP	49	192	3
TAP	49	192	4
TAP	49	288	6
TAP	49	288	7
HLD	50	0	3	96
HLD	50	0	4	96
TAP	50	192	1
TAP	50	192	6
BRK	50	288	1
BRK	50	288	6
TAP	51	0	7
TAP	51	96	6
TAP	51	192	5
TAP	51	288	3
TAP	51	288	4
TAP	52	0	2
TAP	52	96	1
TAP	52	192	1
TAP	52	192	4
TAP	53	0	0
TAP	53	96	1
TAP	53	192	2
TAP	53	288	3
TAP	53	288	4
TAP	54	0	5
TAP	54	96	6
TAP	54	192	3
TAP	54	192	6
HLD	55	0	1	96
TAP	55	96	0
TAP	55	192	2
TAP	55	192	7
HLD	56	0	6	96
TAP	56	96	7
TAP	56	192	0
TAP	56	192	5
TAP	57	0	1
TAP	57	96	2
TAP	57	192	3
TAP	57	288	4
TAP	57	288	5
TAP	58	0	3
TAP	58	96	2
BRK	58	192	1
BRK	58	192	4
TAP	59	0	4
TAP	59	0	5
TAP	59	96	3
TAP	59	96	6
TAP	59	192	2
TAP	59	192	3
TAP	59	288	1
TAP	59	288	4
TAP	60	0	4
TAP	60	0	5
TAP	60	96	3
TAP	60	96	6
TAP	60	192	2
TAP	60	192	7
TAP	61	0	0
TAP	61	0	1
TAP	61	96	2
TAP	61	96	7
TAP	61	192	6
TAP	61	192	7
TAP	61	288	0
TAP	61	288	5
TAP	62	0	0
TAP	62	0	7
TAP	62	96	1
TAP	62	96	6
TAP	62	192	2
TAP	62	192	5
HLD	63	0	0	96
HLD	63	0	1	96
TAP	63	192	2
TAP	63	192	7
HLD	64	0	6	96
HLD	64	0	7	96
TAP	64	192	0
TAP	64	192	5
XTP	65	0	4
XTP	65	0	6
XTP	65	192	1
XTP	65	192	3
TAP	66	0	3
TAP	66	0	4
TAP	66	96	3
TAP	66	96	4
TAP	66	192	2
TAP	66	192	5
BRK	66	288	0
BRK	66	288	7

T_REC_TAP	218
T_REC_BRK	10
T_REC_XTP	12
T_REC_HLD	36
T_REC_XHO	0
T_REC_STR	3
T_REC_BST	0
T_REC_XST	0
T_REC_TTP	12
T_REC_THO	0
T_REC_SLD	3
T_REC_ALL	294
T_NUM_TAP	245
T_NUM_BRK	10
T_NUM_HLD	36
T_NUM_SLD	3
T_NUM_ALL	294
T_JUDGE_TAP	255
T_JUDGE_HLD	112
T_JUDGE_SLD	3
T_JUDGE_ALL	370
TTM_EACHPAIRS	111
TTM_SCR_TAP	122500
TTM_SCR_BRK	26000
TTM_SCR_HLD	36000
TTM_SCR_SLD	4500
TTM_SCR_ALL	189000
TTM_SCR_S	182400
TTM_SCR_SS	188000
TTM_RAT_ACV	10053

