VERSION	0.00.00	1.03.00
FES_MODE	0
BPM_DEF	183.000	183.000	183.000	183.000
MET_DEF	4	4
RESOLUTION	384
CLK_DEF	384
COMPATIBLE_CODE	MA2

BPM	0	0	183.000
MET	0	0	4	4
CLK	0	0
CLK	0	96
CLK	0	192
CLK	0	288

STR	2	0	3
SI_	2	0	3	96	192	1
HLD	2	0	4	288
STR	3	0	3
SI_	3	0	3	96	192	0
HLD	3	0	4	288
STR	4	0	3
SI_	4	0	3	96	192	7
HLD	4	0	4	288
STR	5	0	3
SI_	5	0	3	96	192	0
HLD	5	0	4	288
HLD	6	0	5	768
TTP	6	192	4	B	0	M1
TTP	6	288	5	B	0	M1
TTP	7	0	6	B	0	M1
TTP	7	96	7	B	0	M1
TTP	7	192	0	B	0	M1
TTP	7	288	1	B	0	M1
STR	8	0	3
SF_	8	0	3	96	288	7
TAP	9	192	2
TAP	9	192	4
TAP	9	288	3
TAP	9	288	5
STR	10	0	1
SXL	10	0	1	96	480	0
STR	10	0	6
SXR	10	0	6	96	480	7
TAP	12	0	5
TAP	12	192	5
TAP	13	0	3
TAP	13	0	5
STR	13	96	2
SCR	13	96	2	96	96	6
TAP	13	96	4
XHO	14	0	1	96
XHO	14	0	7	96
HLD	14	192	2	96
HLD	14	192	6	96
HLD	15	0	3	96
HLD	15	0	5	96
TAP	15	192	4
TAP	15	288	2
TAP	15	288	7
TAP	16	0	1
STR	16	0	3
SI_	16	0	3	96	48	5
TAP	16	192	1
STR	16	192	3
SI_	16	192	3	96	48	6
TAP	17	0	1
TAP	17	0	3
TAP	17	96	4
TAP	17	96	6
TAP	17	192	2
TAP	17	192	5
BRK	17	288	0
BRK	17	288	7
TAP	18	0	1
TAP	18	0	4
TAP	18	96	2
TAP	18	96	3
HLD	18	144	2	192
TAP	18	144	3
STR	18	240	0
SCL	18	240	0	96	144	4
HLD	19	96	1	96
HLD	19	192	0	96
TAP	19	288	7
TAP	20	0	3
TAP	20	0	6
TAP	20	96	4
TAP	20	96	5
TAP	20	144	4
HLD	20	144	5	192
STR	20	240	7
SCR	20	240	7	96	144	3
TAP	21	96	6
STR	21	144	4
SI_	21	144	4	96	48	1
SI_	21	144	4	96	48	7
TAP	21	144	6
STR	22	0	2
SI_	22	0	2	96	48	0
STR	22	96	6
SI_	22	96	6	96	48	4
STR	22	192	1
SI_	22	192	1	96	48	7
STR	22	288	5
SI_	22	288	5	96	48	3
TAP	23	0	2
TAP	23	48	2
STR	23	144	0
SUL	23	144	0	96	48	3
STR	23	144	7
SCL	23	144	7	96	48	4
TAP	24	0	0
TAP	24	0	2
TAP	24	96	4
TAP	24	144	5
TAP	24	144	7
XTP	24	240	1
XTP	24	240	6
BRK	24	288	0
BRK	24	288	7
XHO	25	0	2	1056
XTP	25	0	4
TAP	25	96	4
TAP	25	192	4
TAP	25	288	4
TAP	26	0	3
TAP	26	96	3
TAP	26	192	3
TAP	26	288	3
TAP	27	0	1
TAP	27	96	0
TAP	27	192	7
TAP	27	288	6
TTP	28	0	0	C	0	M1
TTP	28	0	6	B	0	M1
TTP	28	0	7	B	0	M1
TTP	28	192	0	B	0	M1
TTP	28	192	0	C	0	M1
TTP	28	192	1	B	0	M1
XTP	29	0	3
XHO	29	0	5	1056
TAP	29	96	3
TAP	29	192	3
TAP	29	288	3
TAP	30	0	4
TAP	30	96	4
TAP	30	192	4
TAP	30	288	4
TAP	31	0	6
TAP	31	96	7
TAP	31	192	0
TAP	31	288	1
TTP	32	0	0	C	0	M1
TTP	32	0	1	B	0	M1
TTP	32	0	6	B	0	M1
TAP	32	192	3
TAP	32	192	4
TAP	32	288	3
TAP	32	288	4
HLD	33	0	1	96
TAP	33	96	3
HLD	33	192	5	96
TAP	33	288	3
HLD	34	0	2	96
TAP	34	96	4
HLD	34	192	6	96
TAP	34	288	4
HLD	35	0	1	96
HLD	35	96	3	96
HLD	35	192	4	96
HLD	35	288	6	96
TAP	36	0	7
TAP	36	96	0
TAP	36	96	7
STR	36	144	0
SCR	36	144	0	96	48	3
STR	36	144	7
SCL	36	144	7	96	48	4
HLD	37	0	2	144
TAP	37	96	3
TAP	37	144	3
TAP	37	240	1
TAP	37	240	4
TAP	37	288	1
TAP	37	288	4
HLD	38	0	5	144
TAP	38	96	4
TAP	38	144	4
TAP	38	240	3
TAP	38	240	6
STR	38	288	3
SCR	38	288	3	96	96	7
SUR	38	288	3	96	96	0
TAP	38	288	6
TAP	39	144	1
TAP	39	192	2
TAP	39	288	3
TAP	39	288	4
TAP	40	0	1
TAP	40	0	6
TAP	40	144	5
TAP	40	192	6
BRK	40	240	0
BRK	40	240	7
XHO	41	0	5	480
XTP	41	0	7
TAP	41	96	6
TAP	41	192	4
TAP	41	240	4
TAP	41	336	6
TAP	42	0	6
TAP	42	96	6
TTP	42	192	3	B	0	M1
TTP	42	192	4	B	0	M1
XTP	42	288	1
XTP	42	288	6
XTP	43	0	0
XHO	43	0	2	480
TAP	43	96	1
TAP	43	192	3
TAP	43	240	3
TAP	43	336	1
TAP	44	48	3
TAP	44	96	3
XTP	44	192	1
XTP	44	192	6
TTP	44	288	3	B	0	M1
TTP	44	288	4	B	0	M1
XHO	45	0	5	480
XTP	45	0	7
TAP	45	96	6
TAP	45	192	6
TAP	45	288	4
TAP	45	336	4
TAP	46	48	6
TAP	46	96	6
XTP	46	192	1
XTP	46	192	6
XTP	46	240	1
XTP	46	240	6
HLD	47	0	4	96
HLD	47	96	5	96
TAP	47	192	6
TAP	47	288	0
TAP	47	288	7
HLD	48	0	3	96
HLD	48	96	2	96
TAP	48	192	1
TAP	48	288	0
TAP	48	288	7
STR	49	0	3
SI_	49	0	3	96	48	7
HLD	49	0	4	96
HLD	49	192	3	96
STR	49	192	4
SI_	49	192	4	96	48	0
TAP	50	0	1
TAP	50	0	6
TAP	50	96	3
TAP	50	144	4
TAP	50	192	2
TAP	50	240	5
TAP	50	288	1
TAP	50	336	6
STR	51	0	0
SI_	51	0	0	96	48	2
STR	51	0	7
SI_	51	0	7	96	48	3
STR	51	192	0
SI_	51	192	0	96	48	4
STR	51	192	7
SI_	51	192	7	96	48	5
XTP	52	0	1
XTP	52	0	6
XST	52	48	1
SLR	52	48	1	96	96	0
XST	52	48	6
SLL	52	48	6	96	96	7
BRK	52	288	1
BRK	52	288	6
STR	53	0	2
SI_	53	0	2	96	48	7
TAP	53	0	4
TAP	53	96	5
STR	53	144	5
SI_	53	144	5	96	48	0
TAP	53	240	2
STR	53	288	2
SCL	53	288	2	96	96	5
HLD	54	0	4	144
TAP	54	144	3
TAP	54	192	2
TAP	54	240	1
TAP	54	288	0
STR	54	288	7
SI_	54	288	7	96	48	3
STR	55	0	0
SI_	55	0	0	96	48	2
STR	55	96	6
SI_	55	96	6	96	48	4
STR	55	192	3
SI_	55	192	3	96	48	0
SI_	55	192	3	96	48	6
TAP	56	0	4
TAP	56	0	7
TAP	56	96	4
TAP	56	96	5
STR	56	144	4
SUR	56	144	4	96	96	3
STR	56	144	5
SCR	56	144	5	96	96	2
HLD	57	0	4	192
TAP	57	96	6
HLD	57	192	3	192
TAP	57	288	1
HLD	58	0	5	96
HLD	58	96	7	96
HLD	58	192	0	96
TAP	58	288	2
TTP	59	0	0	C	0	M1
TTP	59	0	5	B	0	M1
TTP	59	0	6	B	0	M1
TTP	59	192	0	C	0	M1
TTP	59	192	1	B	0	M1
TTP	59	192	2	B	0	M1
TAP	59	336	0
STR	59	336	6
SI_	59	336	6	96	48	4
TAP	60	48	3
STR	60	96	3
SF_	60	96	3	96	48	7
XTP	60	192	3
TTP	60	216	0	C	1	M1
XTP	61	0	0
XTP	61	0	7
TAP	61	96	6
TAP	61	144	5
TAP	61	144	7
TAP	61	240	1
TAP	61	288	0
STR	61	288	2
SXL	61	288	2	96	96	3
SLL	61	288	2	96	96	3
TAP	62	144	1
TAP	62	192	0
TAP	62	240	7
TAP	62	288	6
TAP	63	0	2
STR	63	0	5
SI_	63	0	5	96	48	0
TAP	63	96	4
TAP	63	192	2
STR	63	192	5
SI_	63	192	5	96	48	0
TAP	63	288	4
TAP	64	0	2
STR	64	0	5
SI_	64	0	5	96	48	0
TAP	64	96	3
TAP	64	144	3
TAP	64	240	3
TAP	64	240	4
STR	64	288	3
SCL	64	288	3	96	96	0
STR	64	288	4
SCR	64	288	4	96	96	7
TAP	65	192	1
TAP	65	192	6
STR	65	240	1
SLR	65	240	1	96	96	7
STR	65	240	6
SLL	65	240	6	96	96	0
TTP	66	24	0	C	1	M1
XTP	67	0	1
XTP	67	0	3
XTP	67	96	4
XTP	67	96	6
TAP	67	192	1
TAP	67	192	6
STR	67	240	1
SLR	67	240	1	96	96	7
STR	67	240	6
SLL	67	240	6	96	96	0
TAP	67	288	1
TAP	67	288	6
TTP	68	24	0	C	1	M1
HLD	69	0	2	96
HLD	69	96	4	96
HLD	69	192	6	96
HLD	69	288	0	96
STR	70	0	1
SI_	70	0	1	96	48	3
STR	70	96	0
SI_	70	96	0	96	48	4
STR	70	192	7
SI_	70	192	7	96	48	5
STR	70	288	0
SCR	70	288	0	96	288	7
TAP	72	0	3
TAP	72	0	7
XTP	72	192	1
XTP	72	192	4
XTP	72	288	3
XTP	72	288	6
XHO	73	0	0	576
XST	73	0	4
SI_	73	0	4	96	48	1
XST	73	192	4
SI_	73	192	4	96	48	7
XST	74	0	4
SI_	74	0	4	96	48	6
TAP	74	192	4
TAP	74	288	5
TTP	75	0	2	B	0	M1
TTP	75	0	3	B	0	M1
TTP	75	0	4	B	0	M1
TTP	75	0	5	B	0	M1
TTP	75	192	0	C	0	M1
TTP	75	192	1	B	0	M1
TTP	75	192	6	B	0	M1
TAP	76	0	0
TAP	76	0	7
XTP	76	96	1
XTP	76	96	6
TAP	76	192	2
TAP	76	240	5
TAP	76	288	3
TAP	76	288	4
HLD	77	0	5	384
TTP	77	192	6	B	0	M1
TTP	77	192	7	B	0	M1
HLD	78	0	2	384
TTP	78	192	0	B	0	M1
TTP	78	192	1	B	0	M1
HLD	79	0	4	96
HLD	79	96	5	96
HLD	79	192	6	384
TTP	80	0	3	B	0	M1
TTP	80	96	0	C	0	M1
TTP	80	192	7	B	0	M1
TTP	81	0	0	C	1	M1
TTP	81	0	1	B	0	M1
TTP	81	0	2	B	0	M1
TTP	81	0	5	B	0	M1
TTP	81	0	6	B	0	M1
STR	82	0	1
SLR	82	0	1	96	96	0
STR	82	0	6
SLL	82	0	6	96	96	7
BRK	82	288	1
BRK	82	288	6
STR	83	0	4
SI_	83	0	4	96	48	7
TAP	83	96	3
STR	83	144	3
SCL	83	144	3	96	48	0
TAP	83	240	4
STR	83	288	4
SCR	83	288	4	96	48	7
TAP	84	144	3
TAP	84	144	4
TAP	84	192	3
TAP	84	192	4
TAP	84	240	2
TAP	84	240	5
TAP	84	288	1
TAP	84	288	6
XHO	85	0	0	288
XTP	85	0	7
TAP	85	96	5
TAP	85	144	5
TAP	85	192	4
TAP	85	240	4
TAP	85	288	3
TAP	86	0	1
TAP	86	0	6
TAP	86	96	2
TAP	86	96	3
STR	86	144	2
SCL	86	144	2	96	96	5
STR	86	144	3
SUL	86	144	3	96	96	4
XHO	87	0	3	192
TAP	87	96	1
HLD	87	192	4	192
TAP	87	288	6
HLD	88	0	2	96
HLD	88	96	0	96
HLD	88	192	7	96
TAP	88	288	5
TTP	89	0	0	C	0	M1
TTP	89	0	1	B	0	M1
TTP	89	0	2	B	0	M1
TTP	89	192	0	C	0	M1
TTP	89	192	5	B	0	M1
TTP	89	192	6	B	0	M1
STR	89	336	1
SI_	89	336	1	96	48	3
TAP	89	336	7
TAP	90	48	4
STR	90	96	4
SF_	90	96	4	96	48	0
XTP	90	192	4
TTP	90	208	0	C	1	M1
XTP	91	0	0
XTP	91	0	7
TAP	91	96	6
TAP	91	144	5
TAP	91	144	7
TAP	91	240	1
TAP	91	288	0
STR	91	288	2
SXL	91	288	2	96	96	3
SLL	91	288	2	96	96	3
TAP	92	144	1
TAP	92	192	0
TAP	92	240	7
TAP	92	288	6
STR	93	0	2
SI_	93	0	2	96	48	7
TAP	93	0	5
TAP	93	96	3
STR	93	192	2
SI_	93	192	2	96	48	7
TAP	93	192	5
TAP	93	288	3
STR	94	0	2
SI_	94	0	2	96	48	7
TAP	94	0	5
TAP	94	96	4
TAP	94	144	4
TAP	94	240	3
TAP	94	240	4
STR	94	288	3
SCL	94	288	3	96	96	0
STR	94	288	4
SCR	94	288	4	96	96	7
TAP	95	192	2
TAP	95	192	6
STR	95	240	2
SLR	95	240	2	96	96	0
STR	95	240	6
SLL	95	240	6	96	96	0
TTP	96	24	0	C	1	M1
XTP	97	0	1
XTP	97	0	3
XTP	97	96	4
XTP	97	96	6
TAP	97	192	1
TAP	97	192	5
STR	97	240	1
SLR	97	240	1	96	96	7
STR	97	240	5
SLL	97	240	5	96	96	7
TAP	97	288	1
TAP	97	288	5
TTP	98	24	0	C	1	M1
HLD	99	0	5	192
TTP	99	96	0	C	0	M1
HLD	99	192	2	192
TTP	99	288	0	C	0	M1
STR	100	0	7
SI_	100	0	7	96	48	1
STR	100	96	3
SI_	100	96	3	96	48	5
STR	100	192	6
SI_	100	192	6	96	48	2
STR	100	288	4
SXR	100	288	4	96	288	0
HLD	101	0	7	288
STR	102	0	1
SLR	102	0	1	96	96	7
TAP	102	0	6
XST	102	192	4
SI_	102	192	4	96	48	0
XST	102	288	3
SI_	102	288	3	96	48	7
STR	103	0	4
SCR	103	0	4	96	1056	3
TTP	103	24	0	C	1	M1
TAP	106	192	1
TAP	106	192	6
TAP	106	240	1
TAP	106	240	6
TAP	106	288	1
TAP	106	288	6
BRK	106	336	1
BRK	106	336	6

T_REC_TAP	229
T_REC_BRK	12
T_REC_XTP	38
T_REC_HLD	51
T_REC_XHO	10
T_REC_STR	78
T_REC_BST	0
T_REC_XST	7
T_REC_TTP	59
T_REC_THO	0
T_REC_SLD	90
T_REC_ALL	574
T_NUM_TAP	411
T_NUM_BRK	12
T_NUM_HLD	61
T_NUM_SLD	90
T_NUM_ALL	574
T_JUDGE_TAP	423
T_JUDGE_HLD	271
T_JUDGE_SLD	90
T_JUDGE_ALL	784
TTM_EACHPAIRS	120
TTM_SCR_TAP	205500
TTM_SCR_BRK	31200
TTM_SCR_HLD	61000
TTM_SCR_SLD	135000
TTM_SCR_ALL	432700
TTM_SCR_S	418600
TTM_SCR_SS	431500
TTM_RAT_ACV	10027

