VERSION	0.00.00	1.03.00
FES_MODE	0
BPM_DEF	183.000	183.000	183.000	183.000
MET_DEF	4	4
RESOLUTION	384
CLK_DEF	384
COMPATIBLE_CODE	MA2

BPM	0	0	183.000

TTP	2	0	5	B	0	M1
TTP	2	192	4	B	0	M1
TTP	3	0	3	B	0	M1
TTP	3	192	2	B	0	M1
TTP	4	0	5	E	0	M1
TTP	4	0	5	B	0	M1
TTP	4	192	2	B	0	M1
TTP	4	192	3	E	0	M1
TTP	5	0	6	B	0	M1
TTP	5	0	7	E	0	M1
TTP	5	192	1	B	0	M1
TTP	5	192	1	E	0	M1
TTP	6	0	0	C	0	M1
TAP	6	192	2
TAP	6	288	1
TAP	7	0	0
TAP	7	96	7
TAP	7	192	6
TAP	7	288	5
HLD	8	0	2	384
HLD	8	0	5	384
TAP	9	192	2
TAP	9	192	5
STR	9	288	3
SXL	9	288	3	96	576	0
TAP	9	288	4
TAP	12	0	5
TAP	12	192	5
TAP	13	0	5
STR	13	96	5
SCL	13	96	5	96	96	2
XTP	14	0	1
XTP	14	0	3
XTP	14	192	4
XTP	14	192	6
XTP	15	0	0
XTP	15	0	1
XTP	15	192	6
XTP	15	192	7
XTP	16	0	1
XTP	16	0	3
XTP	16	192	4
XTP	16	192	6
XHO	17	0	2	96
XHO	17	0	5	96
XTP	17	192	2
XTP	17	192	5
BRK	17	288	0
BRK	17	288	7
TAP	18	0	1
TAP	18	96	2
TAP	18	96	3
HLD	18	192	5	96
TAP	18	288	4
TAP	19	0	6
TAP	19	96	4
TAP	19	96	5
HLD	19	192	2	96
TAP	19	288	3
TAP	20	0	3
TAP	20	0	5
TAP	20	96	4
XTP	20	144	4
XTP	20	240	3
XTP	20	240	5
XTP	20	336	2
XTP	20	336	4
TAP	21	48	3
TAP	21	96	3
XTP	21	144	4
XTP	21	240	1
XTP	21	240	6
TAP	22	0	2
TAP	22	0	3
TAP	22	96	1
TAP	22	192	4
TAP	22	192	5
TAP	22	288	6
XTP	23	0	3
XTP	23	0	4
XST	23	48	3
SCL	23	48	3	96	144	0
XST	23	48	4
SCR	23	48	4	96	144	7
XHO	24	0	1	144
XHO	24	0	6	144
XTP	24	240	3
XTP	24	240	4
XTP	24	288	3
XTP	24	288	4
HLD	25	0	2	480
TAP	25	0	5
TAP	25	96	5
TAP	25	192	4
TAP	25	288	4
TAP	26	0	3
TAP	26	96	3
TAP	26	192	4
TAP	26	288	3
TAP	27	0	2
TAP	27	0	4
TAP	27	96	2
TAP	27	192	3
TAP	27	192	5
STR	27	288	5
SUL	27	288	5	96	288	3
HLD	29	0	2	192
TAP	29	96	3
TAP	29	192	3
TAP	29	288	3
TAP	29	288	4
HLD	30	0	5	192
TAP	30	96	4
TAP	30	192	4
STR	30	288	2
SUR	30	288	2	96	288	4
TAP	30	288	3
HLD	32	0	2	96
HLD	32	0	5	96
TAP	32	192	2
TAP	32	192	5
TAP	32	288	3
TAP	32	288	4
HLD	33	0	2	384
TAP	33	96	3
TAP	33	192	4
TAP	33	288	5
HLD	34	0	6	288
TAP	34	96	4
TAP	34	192	3
TAP	34	288	2
TAP	35	0	1
TAP	35	96	1
TAP	35	96	3
TAP	35	192	6
STR	35	288	4
SCL	35	288	4	96	240	0
TAP	35	288	6
TAP	36	288	7
XTP	37	0	5
TAP	37	96	3
TAP	37	96	4
TAP	37	192	2
TAP	37	288	3
TAP	37	288	4
TAP	38	0	6
TAP	38	96	4
TAP	38	96	5
TAP	38	192	1
XST	38	288	2
SI_	38	288	2	96	96	7
XST	38	288	3
SI_	38	288	3	96	96	6
TAP	39	192	0
TAP	39	192	5
TAP	39	288	1
TAP	39	288	4
HLD	40	0	2	96
HLD	40	0	3	96
XTP	40	192	1
XTP	40	192	6
XTP	40	240	1
XTP	40	240	6
TAP	41	0	3
HLD	41	0	4	192
TTP	41	192	4	E	0	M1
TTP	41	288	0	C	0	M1
HLD	42	0	5	192
XTP	42	192	4
XTP	42	288	3
XTP	42	288	6
HLD	43	0	3	192
TAP	43	0	4
TTP	43	192	4	E	0	M1
TTP	43	288	0	C	0	M1
HLD	44	0	2	192
XTP	44	192	3
XTP	44	288	1
XTP	44	288	4
HLD	45	0	5	192
TTP	45	192	4	B	0	M1
TTP	45	288	0	C	0	M1
HLD	46	0	1	96
HLD	46	0	6	96
TTP	46	192	0	C	1	M1
XHO	47	0	1	96
HLD	47	96	2	96
TAP	47	192	3
TAP	47	288	3
TAP	47	288	4
HLD	48	0	6	96
HLD	48	96	5	96
TAP	48	192	4
TAP	48	288	3
TAP	48	288	4
HLD	49	0	1	96
TAP	49	0	6
HLD	49	96	2	96
HLD	49	192	3	96
STR	49	288	4
SSL	49	288	4	96	288	0
TTP	51	0	1	B	0	M1
TTP	51	0	2	B	0	M1
TTP	51	0	3	E	0	M1
TTP	51	192	5	B	0	M1
TTP	51	192	5	E	0	M1
TTP	51	192	6	B	0	M1
TTP	52	0	0	B	0	M1
TTP	52	0	0	C	1	M1
TTP	52	0	7	B	0	M1
XTP	52	288	0
XTP	52	288	7
BRK	53	0	1
BRK	53	0	6
XTP	53	96	5
XTP	53	144	4
XTP	53	144	5
XTP	53	240	2
XTP	53	288	2
XTP	53	288	3
TAP	54	0	1
TAP	54	0	4
TAP	54	96	0
TAP	54	96	7
TAP	54	192	4
TAP	54	192	5
TAP	54	288	1
TAP	54	288	6
HLD	55	0	2	96
TAP	55	0	4
TAP	55	96	7
TAP	55	192	3
HLD	55	192	5	96
TAP	55	288	0
XTP	56	0	1
XTP	56	0	7
XTP	56	96	3
XTP	56	96	6
XTP	56	144	3
XTP	56	144	6
XTP	56	240	1
XTP	56	240	4
XTP	56	288	1
XTP	56	288	4
TAP	57	0	3
TAP	57	96	1
TAP	57	96	5
TAP	57	192	4
TAP	57	288	2
HLD	57	288	6	96
HLD	58	0	4	96
HLD	58	96	3	96
TAP	58	192	2
TAP	58	288	1
TAP	58	288	4
XHO	59	0	2	192
XHO	59	0	5	192
XTP	59	336	1
XTP	59	336	6
XTP	60	96	3
XTP	60	96	4
TTP	60	192	0	C	1	M1
TTP	60	192	1	B	0	M1
TTP	60	192	6	B	0	M1
XTP	61	0	0
XTP	61	0	7
XTP	61	96	1
XTP	61	144	0
XTP	61	144	1
XTP	61	240	6
XTP	61	288	6
XTP	61	288	7
TAP	62	0	0
TAP	62	0	5
TAP	62	96	3
TAP	62	96	4
TAP	62	192	0
TAP	62	192	1
TAP	62	288	2
TAP	62	288	7
TAP	63	0	3
HLD	63	0	5	96
TAP	63	96	0
HLD	63	192	2	96
TAP	63	192	4
TAP	63	288	7
TAP	64	0	0
TAP	64	0	6
XTP	64	96	1
XTP	64	96	4
XTP	64	144	1
XTP	64	144	4
XTP	64	240	3
XTP	64	240	6
XTP	64	288	3
XTP	64	288	6
TAP	65	0	1
HLD	65	0	5	192
TAP	65	96	1
TAP	65	192	3
TAP	65	288	4
TAP	65	288	5
TTP	66	0	0	C	1	M1
HLD	67	0	2	192
TAP	67	0	6
TAP	67	96	6
TAP	67	192	4
TAP	67	288	2
TAP	67	288	3
TTP	68	0	0	C	1	M1
TAP	69	0	3
HLD	69	0	4	192
TTP	69	192	4	E	0	M1
TTP	69	288	0	C	0	M1
TTP	70	0	0	E	0	M1
TTP	70	96	1	E	0	M1
TTP	70	96	7	E	0	M1
TTP	70	192	2	E	0	M1
TTP	70	192	6	E	0	M1
XST	70	288	3
SXR	70	288	3	96	384	0
XST	70	288	4
SXL	70	288	4	96	384	7
XTP	72	192	1
XTP	72	192	6
XST	72	288	4
SXR	72	288	4	96	576	0
HLD	72	288	5	672
XTP	75	0	1
XTP	75	0	3
XTP	75	192	4
XTP	75	192	6
XTP	76	0	0
XTP	76	0	2
XTP	76	192	5
XTP	76	192	7
TAP	77	0	1
TAP	77	0	3
TAP	77	96	1
TAP	77	192	3
TAP	77	192	4
TAP	77	288	4
TAP	78	0	1
TAP	78	0	3
TAP	78	96	1
TAP	78	192	3
TAP	78	192	5
TAP	78	288	5
TTP	79	0	3	E	0	M1
TTP	79	0	3	B	0	M1
TTP	79	96	5	B	0	M1
TTP	79	96	6	E	0	M1
TTP	79	192	1	E	0	M1
TTP	79	192	1	B	0	M1
TTP	80	0	6	B	0	M1
TTP	80	0	7	E	0	M1
TTP	80	96	1	B	0	M1
TTP	80	96	2	B	0	M1
TTP	80	192	4	B	0	M1
TTP	80	192	5	E	0	M1
THO	81	0	0	384	C	0	M1
XTP	82	192	1
XTP	82	192	6
XTP	82	288	1
XTP	82	288	6
HLD	83	0	4	192
STR	83	0	5
SCR	83	0	5	96	144	7
STR	84	0	2
SCL	84	0	2	96	144	0
HLD	84	0	3	192
STR	85	0	3
SCL	85	0	3	96	144	0
STR	85	0	4
SCR	85	0	4	96	144	7
HLD	86	0	0	96
HLD	86	0	7	96
HLD	86	192	1	96
HLD	86	192	6	96
TAP	87	0	2
TAP	87	0	5
HLD	87	96	1	96
TAP	87	96	4
TAP	87	192	0
TAP	87	288	0
TAP	87	288	7
TAP	88	0	1
TAP	88	0	6
TAP	88	96	0
HLD	88	96	5	96
TAP	88	192	4
TAP	88	288	2
TAP	88	288	5
XHO	89	0	3	192
XHO	89	0	4	192
XTP	89	336	0
XTP	89	336	7
XTP	90	96	2
XTP	90	96	5
TTP	90	192	0	C	1	M1
TTP	90	192	1	B	0	M1
TTP	90	192	6	B	0	M1
XTP	91	0	0
XTP	91	0	7
XTP	91	96	5
XTP	91	144	4
XTP	91	144	6
XTP	91	240	2
XTP	91	288	1
XTP	91	288	3
TAP	92	0	4
TAP	92	0	5
TAP	92	96	2
TAP	92	96	7
TAP	92	192	2
TAP	92	192	3
TAP	92	288	0
TAP	92	288	5
TAP	93	0	4
HLD	93	0	5	96
TAP	93	96	0
HLD	93	192	2	96
TAP	93	192	3
TAP	93	288	7
TAP	94	0	3
TAP	94	0	5
XTP	94	96	2
XTP	94	96	7
XTP	94	144	2
XTP	94	144	7
XTP	94	240	0
XTP	94	240	5
XTP	94	288	0
XTP	94	288	5
HLD	95	0	1	192
TAP	95	0	6
TAP	95	96	6
TAP	95	192	4
TAP	95	288	2
TAP	95	288	3
TTP	96	0	0	B	0	M1
TTP	96	0	0	C	1	M1
TTP	96	0	5	B	0	M1
TAP	97	0	1
HLD	97	0	6	192
TAP	97	96	1
TAP	97	192	3
TAP	97	288	4
TAP	97	288	5
TTP	98	0	0	C	1	M1
TTP	98	0	2	B	0	M1
TTP	98	0	7	B	0	M1
TAP	99	0	3
HLD	99	0	5	96
TAP	99	96	0
HLD	99	192	2	96
TAP	99	192	4
TAP	99	288	7
TAP	100	0	2
HLD	100	0	4	96
TAP	100	96	7
HLD	100	192	3	96
TAP	100	192	5
STR	100	288	0
SXL	100	288	0	96	384	4
SXR	100	288	0	96	384	4
TAP	102	192	0
TAP	102	192	6
STR	102	288	2
SCL	102	288	2	96	1152	5
TAP	102	288	4
THO	103	0	0	1152	C	0	M1
TAP	106	192	0
TAP	106	192	7
TAP	106	240	0
TAP	106	240	7
TAP	106	288	0
TAP	106	288	7
BRK	106	336	1
BRK	106	336	6

T_REC_TAP	198
T_REC_BRK	6
T_REC_XTP	111
T_REC_HLD	53
T_REC_XHO	9
T_REC_STR	12
T_REC_BST	0
T_REC_XST	7
T_REC_TTP	62
T_REC_THO	2
T_REC_SLD	20
T_REC_ALL	480
T_NUM_TAP	390
T_NUM_BRK	6
T_NUM_HLD	64
T_NUM_SLD	20
T_NUM_ALL	480
T_JUDGE_TAP	396
T_JUDGE_HLD	236
T_JUDGE_SLD	20
T_JUDGE_ALL	652
TTM_EACHPAIRS	147
TTM_SCR_TAP	195000
TTM_SCR_BRK	15600
TTM_SCR_HLD	64000
TTM_SCR_SLD	30000
TTM_SCR_ALL	304600
TTM_SCR_S	294900
TTM_SCR_SS	304000
TTM_RAT_ACV	10019

