VERSION	0.00.00	1.03.00
FES_MODE	0
BPM_DEF	183.000	183.000	183.000	183.000
MET_DEF	4	4
RESOLUTION	384
CLK_DEF	384
COMPATIBLE_CODE	MA2

BPM	0	0	183.000
MET	0	0	4	4

XHO	2	0	2	384
HLD	3	0	3	384
HLD	4	0	4	384
TAP	5	0	5
TAP	5	192	5
HLD	6	0	5	384
HLD	7	0	4	384
HLD	8	0	3	384
TAP	9	0	2
TAP	9	192	1
STR	10	0	0
SXL	10	0	0	96	1056	3
STR	10	0	7
SXR	10	0	7	96	1056	4
HLD	14	0	2	192
HLD	14	192	3	192
HLD	15	0	4	192
HLD	15	192	5	192
HLD	16	0	6	192
HLD	16	192	7	192
TAP	17	0	0
TAP	17	96	0
BRK	17	192	1
BRK	17	192	6
TAP	18	0	1
TAP	18	96	0
TAP	18	192	6
TAP	18	192	7
TAP	19	0	6
TAP	19	96	7
TAP	19	192	0
TAP	19	192	1
TAP	20	0	2
TAP	20	96	1
TAP	20	192	0
TAP	20	288	7
TAP	21	0	6
TAP	21	96	4
TAP	21	96	5
XTP	21	192	3
XTP	21	192	6
TAP	22	0	6
TAP	22	96	7
TAP	22	192	0
TAP	22	192	1
TAP	23	0	1
TAP	23	96	0
TAP	23	192	7
TAP	23	288	6
TAP	24	0	7
XTP	24	96	0
XTP	24	96	7
BRK	24	192	1
BRK	24	192	6
HLD	25	0	2	192
TAP	25	192	3
HLD	26	0	5	192
TAP	26	192	4
HLD	27	0	3	192
TAP	27	192	4
TAP	27	288	5
TAP	28	0	6
TAP	28	96	5
XTP	28	192	4
XTP	28	192	5
HLD	29	0	5	192
TAP	29	192	4
HLD	30	0	2	192
TAP	30	192	3
HLD	31	0	4	192
TAP	31	192	3
TAP	31	288	2
TAP	32	0	1
TAP	32	96	2
XTP	32	192	2
XTP	32	192	3
TAP	33	0	2
TAP	33	96	3
TAP	33	192	4
TAP	33	192	5
TAP	34	0	5
TAP	34	96	4
TAP	34	192	2
TAP	34	192	3
TAP	35	0	1
TAP	35	96	0
TAP	35	192	7
TAP	35	288	6
TAP	36	0	5
TAP	36	96	4
XTP	36	192	3
XTP	36	192	4
TAP	37	0	5
TAP	37	96	4
TAP	37	192	2
TAP	37	192	3
TAP	38	0	2
TAP	38	96	3
TAP	38	192	4
TAP	38	192	5
TAP	39	0	6
TAP	39	96	6
TAP	39	192	7
TAP	39	288	7
TAP	40	0	0
TAP	40	96	0
TAP	40	96	7
XTP	40	192	1
XTP	40	192	6
STR	41	0	1
SCR	41	0	1	96	336	5
XTP	42	192	6
XTP	42	288	6
STR	43	0	6
SCL	43	0	6	96	336	2
XTP	44	192	1
XTP	44	288	1
STR	45	0	0
SI_	45	0	0	96	288	3
XTP	46	96	4
BRK	46	192	3
BRK	46	192	4
TAP	47	0	5
TAP	47	96	5
TAP	47	192	6
TAP	47	288	6
TAP	48	0	7
TAP	48	96	7
TAP	48	192	0
TAP	48	288	0
TAP	49	0	1
TAP	49	96	1
TAP	49	192	2
TAP	49	288	2
TAP	50	0	3
TAP	50	0	4
TAP	50	96	3
TAP	50	96	4
TAP	50	192	2
TAP	50	192	5
TAP	50	288	1
TAP	50	288	6
XTP	51	0	0
XTP	51	0	7
XTP	51	192	0
XTP	51	192	7
BRK	52	0	1
BRK	52	0	6
TAP	53	0	1
TAP	53	96	1
TAP	53	192	0
TAP	53	192	7
TAP	53	288	0
TAP	53	288	7
TAP	54	0	6
TAP	54	96	6
TAP	54	192	0
TAP	54	192	7
TAP	54	288	0
TAP	54	288	7
TAP	55	0	1
TAP	55	96	2
TAP	55	192	3
TAP	55	288	3
TAP	55	288	4
TAP	56	0	5
TAP	56	96	4
TAP	56	96	5
XTP	56	192	3
XTP	56	192	6
HLD	57	0	5	192
TAP	57	192	4
TAP	57	288	3
HLD	58	0	2	192
TAP	58	192	3
TAP	58	288	4
XTP	59	0	4
XTP	59	96	4
XHO	59	192	3	96
XHO	59	192	4	96
XTP	60	0	3
XTP	60	0	4
XTP	60	96	2
XTP	60	96	5
BRK	60	192	1
BRK	60	192	6
TAP	61	0	6
TAP	61	96	6
TAP	61	192	0
TAP	61	192	7
TAP	61	288	0
TAP	61	288	7
TAP	62	0	1
TAP	62	96	1
TAP	62	192	0
TAP	62	192	7
TAP	62	288	0
TAP	62	288	7
TAP	63	0	6
TAP	63	96	5
TAP	63	192	4
TAP	63	288	3
TAP	63	288	4
TAP	64	0	2
TAP	64	96	2
TAP	64	96	3
XTP	64	192	1
XTP	64	192	4
TAP	65	0	1
TAP	65	96	1
XTP	65	192	0
XTP	65	288	0
XHO	66	0	0	192
XHO	66	0	7	192
TAP	67	0	7
TAP	67	96	7
XTP	67	192	0
XTP	67	288	0
XHO	68	0	1	384
XHO	68	0	6	384
TAP	69	192	5
TAP	69	288	5
TAP	70	0	4
TAP	70	96	4
TAP	70	192	3
TAP	70	288	3
STR	71	0	3
SI_	71	0	3	96	240	0
STR	71	0	4
SI_	71	0	4	96	240	7
TAP	72	192	0
TAP	72	192	7
TAP	72	288	0
TAP	72	288	7
XTP	73	0	1
XTP	73	0	6
TTP	73	192	2	B	0	L1
TTP	74	0	4	B	0	L1
TTP	74	192	3	B	0	L1
TTP	75	0	5	B	0	L1
TTP	75	192	6	B	0	L1
TTP	76	0	0	C	0	L1
TTP	77	0	5	B	0	L1
TTP	77	192	3	B	0	L1
TTP	78	0	1	B	0	L1
TTP	78	192	7	B	0	L1
TTP	79	0	5	B	0	L1
TTP	79	192	3	B	0	L1
TTP	79	192	4	B	0	L1
TTP	80	0	2	B	0	L1
TTP	80	0	5	B	0	L1
TTP	80	192	1	B	0	L1
TTP	80	192	6	B	0	L1
THO	81	0	0	384	C	0	L1
XHO	83	0	3	192
XHO	83	0	5	192
XHO	84	0	2	192
XHO	84	0	4	192
XHO	85	0	3	384
XHO	85	0	4	192
XTP	86	192	2
XTP	86	192	5
HLD	87	0	5	192
TAP	87	192	4
TAP	87	288	3
HLD	88	0	2	192
TAP	88	192	3
TAP	88	288	4
XTP	89	0	4
XTP	89	96	4
XHO	89	192	3	96
XHO	89	192	4	96
XTP	90	0	3
XTP	90	0	4
XTP	90	96	2
XTP	90	96	5
BRK	90	192	1
BRK	90	192	6
TAP	91	0	6
TAP	91	96	7
TAP	91	192	0
TAP	91	192	1
TAP	91	288	0
TAP	91	288	1
TAP	92	0	2
TAP	92	96	2
TAP	92	192	1
TAP	92	192	3
TAP	92	288	1
TAP	92	288	3
TAP	93	0	2
TAP	93	96	3
TAP	93	192	4
TAP	93	288	5
TAP	94	0	4
TAP	94	0	5
TAP	94	96	4
TAP	94	96	5
XTP	94	192	3
XTP	94	192	6
XHO	94	288	3	96
XHO	94	288	6	96
XTP	95	192	7
XTP	95	288	7
XHO	96	0	0	192
XHO	96	0	7	192
TAP	97	0	0
TAP	97	96	0
XTP	97	192	7
XTP	97	288	7
XHO	98	0	1	384
XHO	98	0	6	384
TAP	99	192	1
TAP	99	288	1
TAP	100	0	0
TAP	100	96	0
TAP	100	192	7
TAP	100	288	7
STR	101	0	0
SCR	101	0	0	96	240	3
STR	101	0	7
SCL	101	0	7	96	240	4
XTP	102	192	3
XTP	102	192	4
XTP	102	288	2
XTP	102	288	5
XST	103	0	1
SCR	103	0	1	96	1056	7
XST	103	0	6
SCL	103	0	6	96	1056	0
XTP	106	192	0
XTP	106	192	7
XTP	106	240	0
XTP	106	240	7
XTP	106	288	0
XTP	106	288	7
BRK	106	336	1
BRK	106	336	6

T_REC_TAP	181
T_REC_BRK	14
T_REC_XTP	61
T_REC_HLD	21
T_REC_XHO	21
T_REC_STR	9
T_REC_BST	0
T_REC_XST	2
T_REC_TTP	17
T_REC_THO	1
T_REC_SLD	11
T_REC_ALL	338
T_NUM_TAP	270
T_NUM_BRK	14
T_NUM_HLD	43
T_NUM_SLD	11
T_NUM_ALL	338
T_JUDGE_TAP	284
T_JUDGE_HLD	208
T_JUDGE_SLD	11
T_JUDGE_ALL	503
TTM_EACHPAIRS	76
TTM_SCR_TAP	135000
TTM_SCR_BRK	36400
TTM_SCR_HLD	43000
TTM_SCR_SLD	16500
TTM_SCR_ALL	230900
TTM_SCR_S	222650
TTM_SCR_SS	229500
TTM_RAT_ACV	10061

