VERSION	0.00.00	1.03.00
FES_MODE	0
BPM_DEF	183.000	183.000	183.000	183.000
MET_DEF	4	4
RESOLUTION	384
CLK_DEF	384
COMPATIBLE_CODE	MA2

BPM	0	0	183.000
MET	0	0	4	4

TAP	14	0	0
TAP	15	0	0
TAP	16	0	7
XTP	17	0	7
TAP	18	0	6
TAP	19	0	6
TAP	20	0	5
TAP	21	0	5
TAP	22	0	4
TAP	23	0	4
XTP	24	0	3
XTP	24	0	4
TAP	25	0	3
TAP	26	0	3
TAP	27	0	2
TAP	28	0	2
TAP	29	0	1
TAP	30	0	1
HLD	31	0	0	384
TAP	33	0	1
TAP	33	192	1
TAP	34	0	1
TAP	35	0	2
TAP	35	192	2
TAP	36	0	2
TAP	37	0	3
TAP	37	192	3
TAP	38	0	3
TAP	39	0	4
TAP	39	192	4
BRK	40	0	3
BRK	40	0	4
TTP	41	0	5	B	0	L1
TTP	42	0	6	B	0	L1
TTP	43	0	7	B	0	L1
TTP	44	0	0	B	0	L1
TTP	45	0	1	B	0	L1
TTP	46	0	2	B	0	L1
TTP	47	0	3	B	0	L1
TTP	47	0	4	B	0	L1
TTP	48	0	2	B	0	L1
TTP	48	0	5	B	0	L1
TTP	49	0	1	B	0	L1
TTP	49	0	6	B	0	L1
TTP	50	0	0	B	0	L1
TTP	50	0	7	B	0	L1
THO	51	0	0	384	C	1	L1
TAP	53	0	0
TAP	53	96	0
TAP	53	192	0
TAP	54	0	1
TAP	54	96	1
TAP	54	192	1
TAP	55	0	2
TAP	55	96	2
TAP	55	192	2
TAP	56	0	3
TAP	56	96	3
TAP	56	192	3
HLD	57	0	4	192
HLD	58	0	3	192
TAP	59	0	3
TAP	59	0	4
TAP	59	192	3
TAP	59	192	4
XTP	60	0	3
XTP	60	96	4
XTP	60	192	3
TAP	61	0	4
TAP	61	96	4
TAP	61	192	4
TAP	62	0	5
TAP	62	96	5
TAP	62	192	5
TAP	63	0	6
TAP	63	96	6
TAP	63	192	6
TAP	64	0	7
TAP	64	96	7
TAP	64	192	7
HLD	65	0	0	192
XTP	66	0	0
XTP	66	0	7
HLD	67	0	7	192
XTP	68	0	0
XTP	68	0	7
TAP	69	0	0
TAP	69	192	0
TAP	70	0	7
TAP	70	192	7
HLD	71	0	0	384
HLD	71	0	7	384
TAP	72	192	0
TAP	72	192	7
STR	73	0	0
SI_	73	0	0	96	288	4
STR	75	0	7
SI_	75	0	7	96	288	3
STR	77	0	1
SI_	77	0	1	96	288	4
STR	79	0	6
SI_	79	0	6	96	288	3
HLD	81	0	2	384
TAP	83	0	2
TAP	83	0	3
TAP	84	0	2
TAP	84	0	3
TAP	85	0	4
TAP	85	0	5
TAP	86	0	4
TAP	86	0	5
TAP	87	0	6
TAP	87	192	6
TAP	88	0	7
TAP	88	192	7
HLD	89	0	0	192
HLD	89	0	7	192
XTP	90	0	0
XTP	90	96	7
BRK	90	192	0
TAP	91	0	0
TAP	91	96	0
TAP	91	192	0
TAP	92	0	1
TAP	92	96	1
TAP	92	192	1
TAP	93	0	2
TAP	93	96	2
TAP	93	192	2
TAP	94	0	3
TAP	94	96	3
TAP	94	192	3
HLD	95	0	4	192
XTP	96	0	3
XTP	96	0	5
HLD	97	0	3	192
XTP	98	0	2
XTP	98	0	4
TAP	99	0	3
TAP	99	0	4
TAP	99	192	3
TAP	99	192	4
TAP	100	0	2
TAP	100	0	5
TAP	100	192	2
TAP	100	192	5
TAP	101	0	1
TAP	101	0	6
TAP	101	192	1
TAP	101	192	6
TAP	102	0	0
TAP	102	0	7
TAP	102	192	0
TAP	102	192	7
XHO	103	0	0	1488
XHO	103	0	7	1488

T_REC_TAP	100
T_REC_BRK	3
T_REC_XTP	16
T_REC_HLD	12
T_REC_XHO	2
T_REC_STR	4
T_REC_BST	0
T_REC_XST	0
T_REC_TTP	14
T_REC_THO	1
T_REC_SLD	4
T_REC_ALL	156
T_NUM_TAP	134
T_NUM_BRK	3
T_NUM_HLD	15
T_NUM_SLD	4
T_NUM_ALL	156
T_JUDGE_TAP	137
T_JUDGE_HLD	134
T_JUDGE_SLD	4
T_JUDGE_ALL	275
TTM_EACHPAIRS	24
TTM_SCR_TAP	67000
TTM_SCR_BRK	7800
TTM_SCR_HLD	15000
TTM_SCR_SLD	6000
TTM_SCR_ALL	95800
TTM_SCR_S	92650
TTM_SCR_SS	95500
TTM_RAT_ACV	10031

