VERSION	0.00.00	1.03.00
FES_MODE	0
BPM_DEF	 93.000	 93.000	 93.000	 93.000
MET_DEF	4	4
RESOLUTION	384
CLK_DEF	384
COMPATIBLE_CODE	MA2

BPM	0	0	 93.000
MET	0	0	4	4

TAP	2	288	3
TAP	2	288	4
STR	3	0	1
SCL	3	0	1	96	96	6
TAP	3	96	5
TAP	3	144	5
TAP	3	192	4
TAP	3	224	3
TAP	3	240	4
TAP	3	288	3
TAP	3	288	5
STR	4	0	6
SCR	4	0	6	96	96	1
TAP	4	96	2
TAP	4	144	2
TAP	4	192	3
TAP	4	224	4
TAP	4	240	3
TAP	4	288	2
TAP	4	288	4
STR	5	0	1
SCL	5	0	1	96	96	6
TAP	5	96	5
TAP	5	144	5
TAP	5	192	4
TAP	5	224	3
TAP	5	240	4
TAP	5	288	3
TAP	5	288	5
STR	6	0	6
SCR	6	0	6	96	96	1
TAP	6	96	2
TAP	6	144	2
TAP	6	192	3
TAP	6	224	4
TAP	6	240	3
TAP	6	288	3
TAP	6	288	4
STR	7	0	6
SI_	7	0	6	96	48	2
STR	7	48	2
SCR	7	48	2	96	48	6
TAP	7	96	1
TAP	7	144	1
TAP	7	192	0
TAP	7	240	0
TAP	7	288	1
TAP	7	320	4
TAP	7	336	3
STR	8	0	4
SCL	8	0	4	96	48	1
TAP	8	48	4
STR	8	96	0
SI_	8	96	0	96	48	4
TAP	8	144	0
TAP	8	192	5
TAP	8	240	5
TAP	8	288	4
TAP	8	288	5
STR	9	0	1
SI_	9	0	1	96	48	5
STR	9	48	5
SCL	9	48	5	96	48	1
TAP	9	96	6
TAP	9	144	6
TAP	9	192	7
TAP	9	240	7
TAP	9	288	6
TAP	9	320	3
TAP	9	336	4
STR	10	0	3
SCR	10	0	3	96	48	6
TAP	10	48	3
STR	10	96	7
SI_	10	96	7	96	48	3
TAP	10	144	7
TAP	10	192	2
TAP	10	240	2
TAP	10	288	2
TAP	10	288	3
STR	11	0	6
SI_	11	0	6	96	48	2
STR	11	48	2
SCL	11	48	2	96	48	6
TAP	11	96	3
TAP	11	144	3
TAP	11	192	4
TAP	11	240	4
TAP	11	272	2
TAP	11	288	3
TAP	11	336	1
STR	12	0	0
SCR	12	0	0	96	48	3
TAP	12	48	0
STR	12	96	4
SI_	12	96	4	96	48	0
TAP	12	144	4
TAP	12	192	7
TAP	12	240	7
STR	12	288	7
SCL	12	288	7	96	48	4
TAP	12	336	6
STR	13	0	0
SXL	13	0	0	96	144	5
TAP	13	48	1
TAP	13	96	4
TAP	13	192	6
TAP	13	240	6
STR	13	288	7
SUL	13	288	7	96	48	2
TAP	13	336	7
STR	14	0	0
SUR	14	0	0	96	48	5
TAP	14	48	0
TAP	14	96	6
TAP	14	144	6
TAP	14	192	1
TAP	14	192	6
TAP	14	240	1
TAP	14	240	6
BST	14	288	0
SCR	14	288	0	96	288	6
BRK	14	288	7
TTP	15	0	0	E	0	M1
TTP	15	48	0	C	0	M1
TTP	15	96	4	E	0	M1
TTP	15	192	0	E	0	M1
TTP	15	240	0	C	0	M1
TTP	15	288	4	E	0	M1
STR	16	0	2
SCL	16	0	2	96	48	0
STR	16	0	6
SCL	16	0	6	96	48	4
TAP	16	48	3
TAP	16	48	7
TAP	16	192	1
TAP	16	192	5
TAP	16	240	2
TAP	16	240	6
TAP	16	288	3
STR	16	288	7
SCL	16	288	7	96	288	1
TTP	17	0	0	E	0	M1
TTP	17	48	0	C	0	M1
TTP	17	96	4	E	0	M1
TTP	17	192	0	E	0	M1
TTP	17	240	0	C	0	M1
TTP	17	288	4	E	0	M1
STR	18	0	2
SCR	18	0	2	96	48	5
TAP	18	0	5
TAP	18	80	7
TAP	18	96	7
TAP	18	192	2
STR	18	192	5
SCL	18	192	5	96	48	2
TAP	18	272	0
STR	18	288	0
SCR	18	288	0	96	288	6
TTP	19	0	0	E	0	M1
TTP	19	48	0	C	0	M1
TTP	19	96	4	E	0	M1
TTP	19	192	4	E	0	M1
TTP	19	240	0	C	0	M1
TTP	19	288	0	E	0	M1
STR	20	0	2
SCL	20	0	2	96	48	0
STR	20	0	6
SCL	20	0	6	96	48	4
TAP	20	48	3
TAP	20	48	7
TAP	20	192	1
TAP	20	192	5
TAP	20	240	2
TAP	20	240	6
STR	20	288	7
SCL	20	288	7	96	288	1
TTP	21	0	0	E	0	M1
TTP	21	48	0	C	0	M1
TTP	21	96	4	E	0	M1
TTP	21	192	4	E	0	M1
TTP	21	240	0	C	0	M1
TTP	21	288	0	E	0	M1
TAP	22	0	4
TAP	22	0	6
TAP	22	48	5
TAP	22	96	1
TAP	22	96	3
TAP	22	144	2
TAP	22	192	3
TAP	22	192	4
STR	22	288	1
SCL	22	288	1	96	48	6
TAP	22	288	6
BRK	22	336	0
STR	23	0	5
SCL	23	0	5	96	48	2
TAP	23	48	4
TAP	23	96	1
TAP	23	144	1
STR	23	192	0
SCL	23	192	0	96	48	5
SCR	23	192	0	96	48	3
TAP	23	240	1
TAP	23	240	7
STR	24	0	2
SV_	24	0	2	96	48	0
STR	24	0	6
SV_	24	0	6	96	48	4
TAP	24	48	1
TAP	24	48	5
STR	24	192	1
SV_	24	192	1	96	48	3
STR	24	192	5
SV_	24	192	5	96	48	7
TAP	24	240	2
TAP	24	240	6
STR	25	0	7
SCL	25	0	7	96	48	4
STR	25	48	4
SXL	25	48	4	96	48	4
TAP	25	96	3
TAP	25	144	1
STR	25	192	0
SCR	25	192	0	96	48	3
STR	25	240	3
SXR	25	240	3	96	48	3
TAP	25	288	4
TAP	25	336	6
STR	26	0	7
SCL	26	0	7	96	48	4
STR	26	48	4
SXL	26	48	4	96	48	4
TAP	26	96	3
TAP	26	144	1
HLD	26	192	0	96
STR	26	288	6
SCR	26	288	6	96	48	1
TAP	26	336	7
STR	27	0	2
SCR	27	0	2	96	48	5
TAP	27	48	3
TAP	27	96	6
TAP	27	144	6
STR	27	192	7
SCL	27	192	7	96	48	4
SCR	27	192	7	96	48	2
TAP	27	240	0
TAP	27	240	6
STR	28	0	1
SV_	28	0	1	96	48	3
STR	28	0	5
SV_	28	0	5	96	48	7
TAP	28	48	2
TAP	28	48	6
STR	28	192	2
SV_	28	192	2	96	48	0
STR	28	192	6
SV_	28	192	6	96	48	4
TAP	28	240	1
TAP	28	240	5
STR	29	0	0
SCR	29	0	0	96	48	3
STR	29	48	3
SXR	29	48	3	96	48	3
TAP	29	96	4
TAP	29	144	6
STR	29	192	7
SCL	29	192	7	96	48	4
STR	29	240	4
SXL	29	240	4	96	48	4
TAP	29	288	3
TAP	29	336	1
STR	30	0	0
SCR	30	0	0	96	48	3
STR	30	48	3
SXR	30	48	3	96	48	3
TAP	30	96	4
TAP	30	144	6
HLD	30	192	7	96
XTP	30	288	0
TTP	31	0	0	B	0	M1
TTP	31	0	1	E	0	M1
TTP	31	0	7	B	0	M1
TTP	31	0	7	E	0	M1
TTP	31	96	0	C	0	M1
TTP	31	96	2	E	0	M1
TTP	31	96	6	E	0	M1
TTP	31	192	3	E	0	M1
TTP	31	192	5	E	0	M1
TTP	31	288	4	E	0	M1
HLD	32	0	5	80
TAP	32	48	4
TAP	32	80	4
TAP	32	96	5
TAP	32	144	3
TAP	32	144	4
HLD	32	192	2	80
TAP	32	240	3
TAP	32	272	3
TAP	32	288	2
TAP	32	336	3
TAP	32	336	4
HLD	33	0	5	48
HLD	33	48	7	48
HLD	33	96	0	48
HLD	33	144	2	48
HLD	33	192	5	80
TAP	33	240	4
TAP	33	272	4
TAP	33	288	5
TAP	33	336	3
TAP	33	336	4
HLD	34	0	2	80
TAP	34	48	3
TAP	34	80	3
TAP	34	96	2
TAP	34	144	3
TAP	34	144	4
HLD	34	192	5	80
TAP	34	240	4
TAP	34	272	4
TAP	34	288	5
TAP	34	336	3
TAP	34	336	4
HLD	35	0	2	48
HLD	35	48	0	48
HLD	35	96	7	48
HLD	35	144	5	48
HLD	35	192	3	80
TAP	35	240	4
TAP	35	272	4
STR	35	288	3
SCR	35	288	3	96	96	6
STR	36	0	3
SCL	36	0	3	96	96	0
STR	36	96	3
SCR	36	96	3	96	96	6
TAP	36	192	3
HLD	36	288	0	96
STR	37	0	7
SCL	37	0	7	96	96	4
STR	37	96	7
SCR	37	96	7	96	96	2
STR	37	192	7
SCL	37	192	7	96	96	4
TAP	37	288	7
HLD	38	0	1	96
HLD	38	96	3	96
HLD	38	192	4	96
HLD	38	288	6	336
TAP	39	0	1
TAP	39	48	3
HLD	39	96	1	144
TAP	39	288	1
STR	39	288	6
SCR	39	288	6	96	48	1
TAP	39	336	7
STR	40	0	2
SCR	40	0	2	96	48	5
TAP	40	48	3
TAP	40	96	6
TAP	40	144	6
STR	40	192	7
SCL	40	192	7	96	48	4
SCR	40	192	7	96	48	2
TTP	40	240	0	B	0	M1
TTP	40	240	0	C	0	M1
TTP	40	240	6	B	0	M1
STR	41	0	1
SV_	41	0	1	96	48	3
STR	41	0	5
SV_	41	0	5	96	48	7
TTP	41	48	2	B	0	M1
TTP	41	48	6	B	0	M1
STR	41	192	2
SV_	41	192	2	96	48	0
STR	41	192	6
SV_	41	192	6	96	48	4
TTP	41	240	1	B	0	M1
TTP	41	240	5	B	0	M1
STR	42	0	0
SCR	42	0	0	96	48	3
STR	42	48	3
SXR	42	48	3	96	48	3
TTP	42	96	4	B	0	M1
TTP	42	96	5	E	0	M1
TTP	42	144	6	B	0	M1
TTP	42	144	7	E	0	M1
STR	42	192	7
SCL	42	192	7	96	48	4
STR	42	240	4
SXL	42	240	4	96	48	4
TTP	42	288	3	B	0	M1
TTP	42	288	3	E	0	M1
TTP	42	336	1	B	0	M1
TTP	42	336	1	E	0	M1
STR	43	0	0
SCR	43	0	0	96	48	3
STR	43	48	3
SXR	43	48	3	96	48	3
TTP	43	96	4	B	0	M1
TTP	43	96	5	E	0	M1
TTP	43	144	6	B	0	M1
TTP	43	144	7	E	0	M1
HLD	43	192	7	96
STR	43	288	1
SCL	43	288	1	96	48	6
TAP	43	336	0
STR	44	0	5
SCL	44	0	5	96	48	2
TAP	44	48	4
TAP	44	96	1
TAP	44	144	1
STR	44	192	0
SCL	44	192	0	96	48	5
SCR	44	192	0	96	48	3
TTP	44	240	0	C	0	M1
TTP	44	240	1	B	0	M1
TTP	44	240	7	B	0	M1
STR	45	0	2
SV_	45	0	2	96	48	0
STR	45	0	6
SV_	45	0	6	96	48	4
TTP	45	48	1	B	0	M1
TTP	45	48	5	B	0	M1
STR	45	192	1
SV_	45	192	1	96	48	3
STR	45	192	5
SV_	45	192	5	96	48	7
TTP	45	240	2	B	0	M1
TTP	45	240	6	B	0	M1
STR	46	0	7
SCL	46	0	7	96	48	4
STR	46	48	4
SXL	46	48	4	96	48	4
TTP	46	96	3	B	0	M1
TTP	46	96	3	E	0	M1
TTP	46	144	1	B	0	M1
TTP	46	144	1	E	0	M1
STR	46	192	0
SCR	46	192	0	96	48	3
STR	46	240	3
SXR	46	240	3	96	48	3
TTP	46	288	4	B	0	M1
TTP	46	288	5	E	0	M1
TTP	46	336	6	B	0	M1
TTP	46	336	7	E	0	M1
STR	47	0	7
SCL	47	0	7	96	48	4
STR	47	48	4
SXL	47	48	4	96	48	4
TTP	47	96	3	B	0	M1
TTP	47	96	3	E	0	M1
TTP	47	144	1	B	0	M1
TTP	47	144	1	E	0	M1
HLD	47	192	0	96
TAP	47	288	7
TAP	48	0	2
TAP	48	0	5
TAP	48	96	3
TAP	48	96	4
TAP	48	144	3
TAP	48	144	4
TAP	48	192	5
TAP	48	208	4
TAP	48	224	6
TAP	48	240	2
TAP	48	256	3
TAP	48	272	1
TAP	48	288	5
TAP	48	304	4
TAP	48	320	6
TAP	48	336	3
HLD	49	0	2	48
TAP	49	0	3
TAP	49	48	4
TAP	49	96	4
HLD	49	96	5	48
TAP	49	144	3
TAP	49	192	1
TAP	49	224	1
TAP	49	240	3
TAP	49	272	3
TAP	49	288	4
TAP	49	320	4
TAP	49	336	6
TAP	50	0	4
HLD	50	0	5	48
TAP	50	48	3
HLD	50	96	2	48
TAP	50	96	3
TAP	50	144	4
TAP	50	192	5
TAP	50	208	4
TAP	50	224	6
TAP	50	240	2
TAP	50	256	3
TAP	50	272	1
TAP	50	288	5
TAP	50	304	4
TAP	50	320	6
TAP	50	336	3
HLD	51	0	2	48
TAP	51	0	3
TAP	51	48	4
TAP	51	96	4
HLD	51	96	5	48
TAP	51	144	3
TAP	51	192	2
TAP	51	208	3
TAP	51	224	1
TAP	51	240	5
TAP	51	256	4
TAP	51	272	6
TAP	51	288	2
TAP	51	304	4
TAP	51	320	3
TAP	51	336	5
TAP	51	352	3
TAP	51	368	4

T_REC_TAP	236
T_REC_BRK	2
T_REC_XTP	1
T_REC_HLD	30
T_REC_XHO	0
T_REC_STR	87
T_REC_BST	1
T_REC_XST	0
T_REC_TTP	72
T_REC_THO	0
T_REC_SLD	92
T_REC_ALL	521
T_NUM_TAP	396
T_NUM_BRK	3
T_NUM_HLD	30
T_NUM_SLD	92
T_NUM_ALL	521
T_JUDGE_TAP	399
T_JUDGE_HLD	104
T_JUDGE_SLD	92
T_JUDGE_ALL	595
TTM_EACHPAIRS	54
TTM_SCR_TAP	198000
TTM_SCR_BRK	7800
TTM_SCR_HLD	30000
TTM_SCR_SLD	138000
TTM_SCR_ALL	373800
TTM_SCR_S	362300
TTM_SCR_SS	373500
TTM_RAT_ACV	10008

