VERSION	0.00.00	1.03.00
FES_MODE	0
BPM_DEF	 93.000	 93.000	 93.000	 93.000
MET_DEF	4	4
RESOLUTION	384
CLK_DEF	384
COMPATIBLE_CODE	MA2

BPM	0	0	 93.000
MET	0	0	4	4

HLD	3	0	2	96
TAP	3	96	3
TAP	3	144	4
TAP	3	192	5
XTP	3	288	4
XTP	3	288	5
HLD	4	0	5	96
TAP	4	96	4
TAP	4	144	3
TAP	4	192	2
XTP	4	288	2
XTP	4	288	3
HLD	5	0	1	96
HLD	5	96	3	96
HLD	5	192	4	96
XTP	5	288	6
TAP	6	0	0
TAP	6	48	0
TAP	6	96	0
XTP	6	192	0
XTP	6	192	7
XTP	6	240	0
XTP	6	240	7
BRK	6	288	1
BRK	6	288	6
TTP	7	0	3	E	0	M1
TTP	7	96	2	E	0	M1
TTP	7	192	0	E	0	M1
TTP	7	192	1	E	0	M1
TTP	8	0	5	E	0	M1
TTP	8	96	6	E	0	M1
TTP	8	192	0	E	0	M1
TTP	8	192	7	E	0	M1
TTP	9	0	2	E	0	M1
TTP	9	96	0	C	0	M1
TTP	9	192	6	E	0	M1
TTP	9	288	0	E	0	M1
TTP	10	0	0	C	0	M1
TTP	10	96	4	E	0	M1
TTP	10	192	0	C	0	M1
TTP	10	192	2	B	0	M1
TTP	10	192	5	B	0	M1
HLD	11	0	5	288
TTP	11	96	5	E	0	M1
TTP	11	192	4	B	0	M1
TTP	11	288	3	B	0	M1
HLD	12	0	1	288
TTP	12	96	3	E	0	M1
TTP	12	192	3	B	0	M1
TTP	12	288	4	B	0	M1
HLD	13	0	6	96
HLD	13	96	4	96
HLD	13	192	3	96
XTP	13	288	2
TTP	14	0	2	E	0	M1
TTP	14	96	3	B	0	M1
TTP	14	96	4	B	0	M1
TTP	14	192	0	C	0	M1
TTP	14	192	2	B	0	M1
TTP	14	192	5	B	0	M1
STR	15	0	7
SXR	15	0	7	96	144	7
XTP	15	288	0
STR	16	0	0
SXL	16	0	0	96	144	0
XTP	16	288	7
STR	17	0	7
SCL	17	0	7	96	96	4
XTP	17	288	3
STR	18	0	3
SCL	18	0	3	96	96	0
STR	18	0	4
SCR	18	0	4	96	96	7
XTP	18	288	1
XTP	18	288	6
STR	19	0	1
SI_	19	0	1	96	96	5
TAP	19	288	6
STR	20	0	6
SI_	20	0	6	96	96	2
TAP	20	288	1
HLD	21	0	1	192
TAP	21	96	3
HLD	21	192	5	96
STR	21	288	4
SCR	21	288	4	96	144	1
TTP	22	192	0	C	1	M1
STR	23	0	6
SI_	23	0	6	96	48	2
STR	23	192	1
SI_	23	192	1	96	48	5
STR	24	0	7
SI_	24	0	7	96	48	5
STR	24	96	1
SI_	24	96	1	96	48	3
STR	24	192	0
SI_	24	192	0	96	48	4
STR	25	0	1
SV_	25	0	1	96	48	4
STR	25	0	7
SV_	25	0	7	96	48	4
STR	25	192	3
SV_	25	192	3	96	48	0
STR	25	192	5
SV_	25	192	5	96	48	0
STR	26	0	1
SCR	26	0	1	96	48	4
XTP	26	192	6
XTP	26	192	7
XTP	26	240	6
XTP	26	240	7
XTP	26	288	0
XTP	26	288	5
STR	27	0	1
SI_	27	0	1	96	48	5
STR	27	192	6
SI_	27	192	6	96	48	2
STR	28	0	0
SI_	28	0	0	96	48	2
STR	28	96	6
SI_	28	96	6	96	48	4
STR	28	192	7
SI_	28	192	7	96	48	3
STR	29	0	0
SI_	29	0	0	96	48	4
STR	29	0	1
SI_	29	0	1	96	48	3
STR	29	192	6
SI_	29	192	6	96	48	4
STR	29	192	7
SI_	29	192	7	96	48	3
TAP	30	0	0
TAP	30	0	1
TAP	30	96	2
TAP	30	144	3
STR	30	192	3
SI_	30	192	3	96	48	0
STR	30	192	4
SI_	30	192	4	96	48	7
BRK	31	0	1
BRK	31	0	6
XTP	31	288	3
XTP	31	288	4
HLD	32	0	5	288
TAP	32	96	4
TAP	32	240	4
TAP	32	288	4
HLD	33	0	2	288
TAP	33	96	3
TAP	33	240	3
TAP	33	288	3
HLD	34	0	6	240
TAP	34	96	4
TAP	34	240	4
TAP	34	288	4
TAP	34	288	5
HLD	35	0	1	240
TAP	35	96	3
TAP	35	240	3
TAP	35	288	2
TAP	35	288	3
HLD	36	0	5	192
TAP	36	96	4
HLD	36	192	4	192
TAP	36	288	3
HLD	37	0	3	192
TAP	37	96	2
HLD	37	192	2	96
TAP	37	288	0
TAP	38	0	1
TAP	38	0	7
TAP	38	96	0
TAP	38	96	6
TAP	38	192	2
TAP	38	192	5
HLD	38	288	3	96
HLD	38	288	4	96
XTP	39	288	1
XTP	39	288	6
STR	40	0	6
SCL	40	0	6	96	48	3
TAP	40	0	7
TAP	40	192	0
STR	40	192	1
SCR	40	192	1	96	48	4
STR	41	0	6
SI_	41	0	6	96	48	4
STR	41	96	0
SI_	41	96	0	96	48	2
STR	41	192	7
SI_	41	192	7	96	48	3
XTP	41	288	0
STR	42	0	1
SCR	42	0	1	96	48	4
STR	42	0	7
SCL	42	0	7	96	48	4
STR	42	192	0
SV_	42	192	0	96	48	3
STR	42	192	6
SV_	42	192	6	96	48	3
TAP	43	0	0
STR	43	0	1
SI_	43	0	1	96	48	5
XTP	43	192	6
XTP	43	192	7
XTP	43	240	6
XTP	43	240	7
XTP	43	288	0
XTP	43	288	5
TAP	44	0	0
STR	44	0	1
SCR	44	0	1	96	48	4
STR	44	192	6
SCL	44	192	6	96	48	3
TAP	44	192	7
STR	45	0	1
SI_	45	0	1	96	48	3
STR	45	96	7
SI_	45	96	7	96	48	5
STR	45	192	0
SI_	45	192	0	96	48	4
XTP	45	288	7
STR	46	0	6
SCL	46	0	6	96	48	3
STR	46	0	7
SUL	46	0	7	96	48	3
STR	46	192	0
SUR	46	192	0	96	48	4
STR	46	192	1
SCR	46	192	1	96	48	4
TAP	47	0	6
TAP	47	0	7
TAP	47	96	5
TAP	47	144	4
STR	47	192	3
SCL	47	192	3	96	48	0
STR	47	192	4
SCR	47	192	4	96	48	7
BRK	48	0	1
BRK	48	0	6
TTP	48	192	1	B	0	M1
TTP	48	288	0	C	0	M1
TTP	49	0	4	B	0	M1
TTP	49	0	5	B	0	M1
TTP	49	192	6	B	0	M1
TTP	49	288	0	C	0	M1
TTP	50	0	2	B	0	M1
TTP	50	0	3	B	0	M1
TTP	50	96	4	B	0	M1
TTP	50	96	5	B	0	M1
TTP	50	192	1	B	0	M1
TTP	50	192	6	B	0	M1
TTP	51	0	3	B	0	M1
TTP	51	0	4	B	0	M1
TTP	51	96	2	B	0	M1
TTP	51	96	5	B	0	M1
THO	51	192	0	168	C	0	M1

T_REC_TAP	49
T_REC_BRK	6
T_REC_XTP	33
T_REC_HLD	22
T_REC_XHO	0
T_REC_STR	50
T_REC_BST	0
T_REC_XST	0
T_REC_TTP	46
T_REC_THO	1
T_REC_SLD	50
T_REC_ALL	257
T_NUM_TAP	178
T_NUM_BRK	6
T_NUM_HLD	23
T_NUM_SLD	50
T_NUM_ALL	257
T_JUDGE_TAP	184
T_JUDGE_HLD	155
T_JUDGE_SLD	50
T_JUDGE_ALL	389
TTM_EACHPAIRS	40
TTM_SCR_TAP	89000
TTM_SCR_BRK	15600
TTM_SCR_HLD	23000
TTM_SCR_SLD	75000
TTM_SCR_ALL	202600
TTM_SCR_S	195950
TTM_SCR_SS	202000
TTM_RAT_ACV	10029

