VERSION	0.00.00	1.03.00
FES_MODE	0
BPM_DEF	 93.000	 93.000	 93.000	 93.000
MET_DEF	4	4
RESOLUTION	384
CLK_DEF	384
COMPATIBLE_CODE	MA2

BPM	0	0	 93.000
MET	0	0	4	4

TAP	3	0	6
TAP	3	96	6
XTP	3	192	6
XTP	3	192	7
TAP	4	0	1
TAP	4	96	1
XTP	4	192	0
XTP	4	192	1
TAP	5	0	6
TAP	5	96	7
TAP	5	192	0
TAP	5	288	0
TAP	6	0	7
TAP	6	96	0
TAP	6	96	7
XTP	6	192	1
XTP	6	192	6
HLD	7	0	5	192
TAP	7	192	4
TAP	7	288	4
TAP	7	288	5
HLD	8	0	3	192
TAP	8	192	4
TAP	8	288	3
TAP	8	288	4
HLD	9	0	5	192
TAP	9	192	4
TAP	9	288	4
TAP	10	0	3
TAP	10	96	2
XTP	10	192	1
XTP	10	192	3
HLD	11	0	2	192
TAP	11	192	3
TAP	11	288	2
TAP	11	288	3
HLD	12	0	4	192
TAP	12	192	3
TAP	12	288	3
TAP	12	288	4
TAP	13	0	2
TAP	13	96	1
TAP	13	192	0
TAP	13	288	0
TAP	14	0	7
XTP	14	96	0
XTP	14	96	7
XTP	14	192	1
XTP	14	192	6
STR	15	0	7
SCL	15	0	7	96	144	4
TAP	15	288	3
STR	16	0	3
SCL	16	0	3	96	144	0
TAP	16	288	7
STR	17	0	7
SI_	17	0	7	96	144	4
TAP	17	288	3
TAP	18	0	2
TAP	18	96	2
XTP	18	192	2
XTP	18	192	3
STR	19	0	1
SI_	19	0	1	96	144	5
STR	20	0	6
SI_	20	0	6	96	144	2
TAP	21	0	1
TAP	21	96	1
TAP	21	192	0
TAP	21	288	0
XTP	22	0	0
XTP	22	0	7
XTP	22	96	1
XTP	22	96	6
BRK	22	192	2
BRK	22	192	5
TAP	23	0	1
TAP	23	96	0
TAP	23	96	1
TAP	23	192	6
XTP	23	288	6
XTP	23	288	7
TAP	24	0	0
TAP	24	48	0
TAP	24	96	0
XTP	24	192	1
XTP	24	192	7
HLD	25	0	2	96
TAP	25	96	3
HLD	25	192	4	96
TAP	25	288	3
STR	26	0	2
SV_	26	0	2	96	120	7
STR	26	0	4
SV_	26	0	4	96	120	7
TAP	27	0	6
TAP	27	96	6
TAP	27	96	7
TAP	27	192	1
XTP	27	288	0
XTP	27	288	1
TAP	28	0	7
TAP	28	48	7
TAP	28	96	7
XTP	28	192	0
XTP	28	192	6
HLD	29	0	5	96
TAP	29	96	4
HLD	29	192	3	96
TAP	29	288	4
TAP	30	0	5
TAP	30	96	6
TAP	30	192	7
XTP	30	288	0
XTP	30	288	7
BRK	31	0	1
BRK	31	0	6
TTP	32	0	7	E	0	L1
TTP	32	192	0	C	0	L1
TTP	33	0	3	E	0	L1
TTP	34	0	1	E	0	L1
TTP	34	192	0	C	0	L1
TTP	35	0	5	E	0	L1
TTP	36	0	0	E	0	L1
TTP	36	192	0	C	0	L1
TTP	37	0	4	E	0	L1
TTP	37	192	3	B	0	L1
TTP	37	192	4	B	0	L1
TTP	38	0	2	B	0	L1
TTP	38	0	5	B	0	L1
TTP	38	192	1	B	0	L1
TTP	38	192	6	B	0	L1
THO	39	0	0	192	C	0	L1
TAP	40	0	0
TAP	40	0	1
TAP	40	96	0
TAP	40	96	1
TAP	40	192	6
TAP	40	192	7
XTP	40	288	6
XTP	40	288	7
TAP	41	0	0
TAP	41	48	0
TAP	41	96	0
XTP	41	192	1
XTP	41	192	7
HLD	42	0	2	96
TAP	42	96	3
HLD	42	192	5	96
TAP	42	288	4
STR	43	0	3
SV_	43	0	3	96	120	0
STR	43	0	5
SV_	43	0	5	96	120	0
TAP	44	0	6
TAP	44	0	7
TAP	44	96	6
TAP	44	96	7
TAP	44	192	0
TAP	44	192	1
XTP	44	288	0
XTP	44	288	1
TAP	45	0	7
TAP	45	48	7
TAP	45	96	7
XTP	45	192	0
XTP	45	192	6
HLD	46	0	5	96
TAP	46	96	4
HLD	46	192	2	96
TAP	46	288	3
TAP	47	0	1
XTP	47	96	0
XTP	47	96	7
BRK	47	192	1
BRK	47	192	6
TTP	48	192	1	B	0	L1
TTP	49	0	0	C	0	L1
TTP	49	192	5	B	0	L1
TTP	50	0	6	B	0	L1
TTP	50	192	0	C	0	L1
TTP	51	0	2	B	0	L1
THO	51	192	0	168	C	0	L1

T_REC_TAP	85
T_REC_BRK	6
T_REC_XTP	38
T_REC_HLD	13
T_REC_XHO	0
T_REC_STR	9
T_REC_BST	0
T_REC_XST	0
T_REC_TTP	21
T_REC_THO	2
T_REC_SLD	9
T_REC_ALL	183
T_NUM_TAP	153
T_NUM_BRK	6
T_NUM_HLD	15
T_NUM_SLD	9
T_NUM_ALL	183
T_JUDGE_TAP	159
T_JUDGE_HLD	87
T_JUDGE_SLD	9
T_JUDGE_ALL	255
TTM_EACHPAIRS	37
TTM_SCR_TAP	76500
TTM_SCR_BRK	15600
TTM_SCR_HLD	15000
TTM_SCR_SLD	13500
TTM_SCR_ALL	120600
TTM_SCR_S	116400
TTM_SCR_SS	120000
TTM_RAT_ACV	10050

