VERSION	0.00.00	1.03.00
FES_MODE	0
BPM_DEF	 93.000	 93.000	 93.000	 93.000
MET_DEF	4	4
RESOLUTION	384
CLK_DEF	384
COMPATIBLE_CODE	MA2

BPM	0	0	 93.000
MET	0	0	4	4

TAP	3	0	0
TAP	3	192	0
TAP	4	0	1
TAP	4	192	1
TAP	5	0	2
TAP	5	192	2
TAP	6	0	3
TAP	6	192	3
TAP	6	192	4
HLD	7	0	5	192
TAP	8	0	5
TAP	8	96	5
TAP	8	192	5
TAP	9	0	6
TAP	9	192	7
TAP	10	0	0
XTP	10	192	0
XTP	10	192	7
HLD	11	0	1	192
TAP	12	0	1
TAP	12	96	1
TAP	12	192	1
TAP	13	0	2
TAP	13	192	3
TAP	14	0	4
TAP	14	192	3
TAP	14	192	4
TAP	15	0	4
TAP	15	192	4
XTP	16	0	5
XTP	16	96	5
XTP	16	192	5
TAP	17	0	3
TAP	17	192	3
XTP	18	0	2
XTP	18	96	2
XTP	18	192	2
TAP	19	0	4
TAP	19	192	5
TAP	20	0	6
TAP	20	96	6
TAP	20	192	6
HLD	21	0	7	192
TAP	22	0	0
TAP	22	96	0
BRK	22	192	0
BRK	22	192	7
TAP	23	0	7
TAP	23	96	7
TAP	23	192	0
TAP	23	192	7
TAP	24	0	6
TAP	24	96	6
TAP	24	192	6
TAP	24	192	7
TAP	25	0	5
TAP	25	96	5
TAP	25	192	4
TAP	25	288	4
TAP	26	0	3
TAP	26	0	4
TAP	26	96	3
TAP	26	96	4
XTP	26	192	2
XTP	26	192	5
TAP	27	0	3
TAP	27	96	3
TAP	27	192	3
TAP	27	192	4
TAP	28	0	2
TAP	28	96	2
TAP	28	192	2
TAP	28	192	3
TAP	29	0	1
TAP	29	96	1
TAP	29	192	0
TAP	29	288	0
TAP	30	0	0
TAP	30	0	7
TAP	30	96	0
TAP	30	96	7
XTP	30	192	1
XTP	30	192	6
HLD	31	0	2	192
TTP	32	0	3	B	0	L1
TTP	32	192	4	B	0	L1
TTP	33	0	5	B	0	L1
TTP	33	192	6	B	0	L1
TTP	34	0	7	B	0	L1
TTP	34	192	0	B	0	L1
TTP	35	0	1	B	0	L1
TTP	35	192	2	B	0	L1
TTP	36	0	3	B	0	L1
TTP	36	0	4	B	0	L1
TTP	36	192	5	B	0	L1
TTP	37	0	3	B	0	L1
TTP	37	0	4	B	0	L1
TTP	37	192	2	B	0	L1
TTP	38	0	3	B	0	L1
TTP	38	0	4	B	0	L1
TTP	38	192	2	B	0	L1
TTP	38	192	5	B	0	L1
THO	39	0	0	168	C	1	L1
TAP	40	0	7
TAP	40	96	7
TAP	40	192	6
TAP	40	240	6
TAP	40	288	6
TAP	41	0	5
TAP	41	48	5
TAP	41	96	5
TAP	41	192	4
TAP	41	240	4
TAP	41	288	4
TAP	42	0	3
TAP	42	96	3
TAP	42	192	2
TAP	42	288	2
TAP	43	0	1
TAP	43	96	1
XTP	43	192	0
XTP	43	192	1
TAP	44	0	0
TAP	44	96	0
TAP	44	192	1
TAP	44	240	1
TAP	44	288	1
TAP	45	0	2
TAP	45	48	2
TAP	45	96	2
TAP	45	192	3
TAP	45	240	3
TAP	45	288	3
TAP	46	0	4
TAP	46	96	4
TAP	46	192	5
TAP	46	288	5
TAP	47	0	6
TAP	47	96	6
XTP	47	192	6
XTP	47	192	7
STR	48	0	0
SI_	48	0	0	96	288	4
TAP	49	192	7
STR	50	0	7
SI_	50	0	7	96	288	3
XTP	51	192	0
XTP	51	192	7

T_REC_TAP	101
T_REC_BRK	2
T_REC_XTP	18
T_REC_HLD	4
T_REC_XHO	0
T_REC_STR	2
T_REC_BST	0
T_REC_XST	0
T_REC_TTP	18
T_REC_THO	1
T_REC_SLD	2
T_REC_ALL	148
T_NUM_TAP	139
T_NUM_BRK	2
T_NUM_HLD	5
T_NUM_SLD	2
T_NUM_ALL	148
T_JUDGE_TAP	141
T_JUDGE_HLD	39
T_JUDGE_SLD	2
T_JUDGE_ALL	182
TTM_EACHPAIRS	17
TTM_SCR_TAP	69500
TTM_SCR_BRK	5200
TTM_SCR_HLD	5000
TTM_SCR_SLD	3000
TTM_SCR_ALL	82700
TTM_SCR_S	80050
TTM_SCR_SS	82500
TTM_RAT_ACV	10024

