VERSION	0.00.00	1.03.00
FES_MODE	0
BPM_DEF	180.000	180.000	180.000	180.000
MET_DEF	4	4
RESOLUTION	384
CLK_DEF	384
COMPATIBLE_CODE	MA2

BPM	0	0	180.000
MET	0	0	4	4
MET	15	0	4	1
MET	15	96	4	4
MET	31	96	4	6
MET	32	288	4	4
MET	36	288	4	2
MET	37	96	4	4

STR	1	0	3
SI_	1	0	3	96	576	0
TAP	1	288	7
TAP	2	0	7
TAP	2	144	6
TAP	2	288	5
STR	3	0	4
SI_	3	0	4	96	576	7
TAP	3	288	0
TAP	4	0	0
TAP	4	144	1
TAP	4	288	2
STR	5	0	3
SI_	5	0	3	96	576	0
TAP	5	288	7
TAP	6	0	7
TAP	6	144	6
TAP	6	288	5
TAP	7	0	4
HLD	7	0	5	72
HLD	7	72	6	72
HLD	7	144	7	96
TAP	7	240	0
TAP	7	288	1
TAP	7	288	6
HLD	8	0	2	72
TAP	8	0	3
HLD	8	72	1	72
HLD	8	144	0	96
TAP	8	240	7
TAP	8	288	1
TAP	8	288	6
TAP	9	0	4
HLD	9	0	5	72
HLD	9	72	6	72
HLD	9	144	7	96
TAP	9	240	0
TAP	9	288	1
TAP	9	288	6
HLD	10	0	2	72
TAP	10	0	3
HLD	10	72	1	72
HLD	10	144	0	96
STR	10	240	7
SI_	10	240	7	96	48	3
BRK	10	288	6
BRK	10	336	5
HLD	11	0	4	72
HLD	11	72	5	72
HLD	11	144	6	96
TAP	11	240	7
TAP	11	288	0
TAP	11	288	5
HLD	12	0	3	72
TAP	12	0	4
HLD	12	72	2	72
HLD	12	144	1	96
TAP	12	240	0
TAP	12	288	2
TAP	12	288	7
TAP	13	48	4
TAP	13	96	3
TAP	13	144	5
TAP	13	192	2
TAP	13	240	3
TAP	13	240	4
TAP	13	336	7
STR	14	0	7
SCR	14	0	7	96	192	6
TAP	14	48	1
HLD	14	96	1	288
TTP	15	0	0	C	0	M1
HLD	15	96	1	48
HLD	15	192	0	48
HLD	15	192	2	48
HLD	15	288	6	48
HLD	16	0	5	48
HLD	16	0	7	48
HLD	16	96	2	48
HLD	16	192	1	48
HLD	16	192	3	48
HLD	16	288	5	48
HLD	17	0	4	48
HLD	17	0	6	48
STR	17	96	1
SXL	17	96	1	96	96	3
TAP	17	144	1
TAP	17	192	7
TAP	17	240	7
STR	17	288	6
SXR	17	288	6	96	96	4
TAP	17	336	6
TAP	18	0	0
HLD	18	48	0	192
XST	18	240	7
SF_	18	240	7	96	48	3
XTP	18	336	7
HLD	19	96	0	48
HLD	19	96	1	48
HLD	19	192	2	48
HLD	19	192	7	48
HLD	19	288	6	48
HLD	19	288	7	48
HLD	20	0	0	48
HLD	20	0	5	48
HLD	20	96	2	48
HLD	20	96	3	48
HLD	20	192	1	48
HLD	20	192	4	48
HLD	20	288	4	48
HLD	20	288	5	48
HLD	21	0	3	48
HLD	21	0	6	48
STR	21	96	6
SI_	21	96	6	96	48	2
TAP	21	144	7
TAP	21	192	6
STR	21	288	1
SI_	21	288	1	96	48	5
TAP	21	336	0
TAP	22	0	1
STR	22	96	3
SI_	22	96	3	96	96	7
STR	22	96	4
SI_	22	96	4	96	96	0
XST	23	0	3
SCL	23	0	3	96	192	4
XTP	23	48	4
XTP	23	96	5
THO	23	288	0	192	C	0	M1
TAP	24	96	7
STR	24	144	7
SF_	24	144	7	96	48	3
XST	25	0	4
SCR	25	0	4	96	192	3
XTP	25	48	3
XTP	25	96	2
THO	25	288	0	192	C	0	M1
TAP	26	96	0
STR	26	144	0
SF_	26	144	0	96	48	4
XST	27	0	3
SCL	27	0	3	96	192	4
XTP	27	48	4
XTP	27	96	5
THO	27	288	0	192	C	0	M1
TAP	28	96	7
STR	28	144	7
SF_	28	144	7	96	48	3
TAP	29	0	1
TAP	29	0	5
TAP	29	96	2
TAP	29	144	3
TAP	29	192	2
STR	29	240	4
SI_	29	240	4	96	48	0
TAP	29	336	1
TAP	30	48	2
TAP	30	96	5
TAP	30	144	4
TAP	30	192	5
STR	30	240	3
SI_	30	240	3	96	48	7
TAP	30	336	6
TAP	31	48	5
XTP	31	96	3
XTP	31	96	4
TAP	31	144	2
XTP	31	192	3
XTP	31	192	4
TAP	31	240	6
XTP	31	288	3
XTP	31	288	4
TAP	31	336	1
XTP	32	0	3
XTP	32	0	4
TAP	32	48	7
XTP	32	96	1
XTP	32	96	6
STR	32	288	0
SSL	32	288	0	96	288	4
TTP	33	0	5	E	0	M1
TTP	33	192	7	E	0	M1
STR	33	288	7
SSR	33	288	7	96	288	3
TTP	34	0	3	E	0	M1
TTP	34	192	1	E	0	M1
HLD	34	288	1	192
TAP	35	0	2
HLD	35	96	5	192
TAP	35	192	4
HLD	35	288	3	192
THO	36	96	0	192	C	1	M1
TAP	37	96	0
STR	37	96	7
SI_	37	96	7	96	48	3
TAP	37	192	1
TAP	37	240	1
TAP	37	288	2
STR	37	288	3
SCR	37	288	3	96	48	6
TAP	38	0	1
TAP	38	48	1
STR	38	96	0
SI_	38	96	0	96	48	4
TAP	38	96	7
TAP	38	192	6
TAP	38	240	6
STR	38	288	4
SCL	38	288	4	96	48	1
TAP	38	288	5
TAP	39	0	6
TAP	39	48	6
TAP	39	96	0
STR	39	96	7
SCL	39	96	7	96	96	3
STR	39	192	3
SCL	39	192	3	96	96	7
TAP	39	288	7
TAP	40	0	3
TAP	40	48	3
XTP	40	144	0
XTP	40	144	1
XTP	40	192	2
XTP	40	192	7
XTP	40	240	3
XTP	40	240	6
XTP	40	288	6
XTP	40	288	7
XTP	40	336	0
XTP	40	336	5
XTP	41	0	1
XTP	41	0	4
STR	41	96	0
SI_	41	96	0	96	48	4
TAP	41	96	7
TAP	41	192	6
TAP	41	240	6
STR	41	288	4
SCL	41	288	4	96	48	1
TAP	41	288	5
TAP	42	0	6
TAP	42	48	6
TAP	42	96	0
STR	42	96	7
SI_	42	96	7	96	48	3
TAP	42	192	1
TAP	42	240	1
TAP	42	288	2
STR	42	288	3
SCR	42	288	3	96	48	6
STR	43	0	0
SXL	43	0	0	96	192	3
SXR	43	0	0	96	192	5
XTP	44	0	2
XTP	44	0	6
XTP	44	48	2
XTP	44	48	6
BRK	44	144	6
BRK	44	144	7
BRK	44	192	0
BRK	44	192	5
BRK	44	240	1
BRK	44	240	4
BRK	44	288	2
BRK	44	288	3
TAP	45	0	1
TAP	45	0	6
TAP	45	96	3
STR	45	96	4
SI_	45	96	4	96	48	0
TAP	45	192	2
TAP	45	240	2
STR	45	288	0
SCL	45	288	0	96	48	5
TAP	45	288	1
TAP	46	0	2
TAP	46	48	2
STR	46	96	3
SI_	46	96	3	96	48	7
TAP	46	96	4
TAP	46	192	5
TAP	46	240	5
TAP	46	288	6
STR	46	288	7
SCR	46	288	7	96	48	2
TAP	47	0	5
TAP	47	48	5
TAP	47	96	3
STR	47	96	4
SCR	47	96	4	96	96	0
STR	47	192	0
SCR	47	192	0	96	96	4
TAP	47	288	4
TAP	48	0	0
TAP	48	48	0
XTP	48	144	2
XTP	48	144	3
XTP	48	192	1
XTP	48	192	4
XTP	48	240	0
XTP	48	240	5
XTP	48	288	4
XTP	48	288	5
XTP	48	336	3
XTP	48	336	6
XTP	49	0	2
XTP	49	0	7
STR	49	96	3
SI_	49	96	3	96	48	7
TAP	49	96	4
TAP	49	192	5
TAP	49	240	5
TAP	49	288	6
STR	49	288	7
SCR	49	288	7	96	48	2
TAP	50	0	5
TAP	50	48	5
TAP	50	96	3
STR	50	96	4
SI_	50	96	4	96	48	0
TAP	50	192	2
TAP	50	240	2
STR	50	288	0
SCL	50	288	0	96	48	5
TAP	50	288	1
STR	51	0	3
SCL	51	0	3	96	192	5
SUL	51	0	3	96	192	4
TAP	52	0	4
TAP	52	0	5
STR	52	48	4
SI_	52	48	4	96	96	7
STR	52	48	5
SXR	52	48	5	96	96	4
BRK	52	288	1
BRK	52	288	5
TAP	53	96	2
TAP	53	96	3
TAP	53	192	3
TAP	53	192	4
TAP	53	288	4
TAP	53	288	5
TTP	54	0	0	E	0	M1
TTP	54	0	3	B	0	M1
TAP	54	96	4
TAP	54	96	5
TAP	54	192	3
TAP	54	192	4
TAP	54	288	2
TAP	54	288	3
TTP	55	0	0	E	0	M1
TTP	55	0	4	B	0	M1
TAP	55	96	2
TAP	55	96	3
TAP	55	192	2
TAP	55	192	4
TAP	55	288	3
TAP	55	288	6
TTP	56	0	0	E	0	M1
TTP	56	0	4	E	0	M1
TAP	56	96	4
TAP	56	96	5
TAP	56	192	3
TAP	56	192	5
TAP	56	288	1
TAP	56	288	4
TTP	57	0	0	E	0	M1
TTP	57	0	4	E	0	M1
STR	57	96	1
SCR	57	96	1	96	192	4
TAP	57	96	7
TTP	57	192	0	B	0	M1
TTP	57	288	0	C	0	M1
TTP	58	0	5	B	0	M1
TAP	58	96	0
STR	58	96	6
SCL	58	96	6	96	192	3
TTP	58	192	7	B	0	M1
TTP	58	288	0	C	0	M1
TTP	59	0	2	B	0	M1
TAP	59	96	1
HLD	59	96	3	72
HLD	59	168	4	72
STR	59	240	6
SI_	59	240	6	96	48	3
TAP	59	336	0
TAP	60	0	0
HLD	60	96	4	72
TAP	60	96	6
HLD	60	168	3	72
STR	60	240	1
SI_	60	240	1	96	48	4
TAP	60	336	7
TAP	61	0	7
TAP	61	96	1
HLD	61	96	3	72
HLD	61	168	4	72
STR	61	240	6
SI_	61	240	6	96	48	3
TAP	61	336	0
TAP	62	0	0
HLD	62	96	4	72
TAP	62	96	6
HLD	62	168	3	72
STR	62	240	2
SI_	62	240	2	96	48	7
STR	62	336	7
SI_	62	336	7	96	48	3
BRK	63	0	6
BRK	63	48	5
HLD	63	96	4	72
HLD	63	168	1	72
STR	63	240	7
SCL	63	240	7	96	48	4
TTP	63	336	3	B	0	M1
TTP	63	336	4	E	0	M1
TTP	64	0	1	B	0	M1
TTP	64	0	2	E	0	M1
HLD	64	96	0	72
HLD	64	168	5	72
STR	64	240	3
SCL	64	240	3	96	48	0
TTP	64	336	0	E	0	M1
TTP	64	336	7	B	0	M1
TTP	65	0	5	B	0	M1
TTP	65	0	6	E	0	M1
TAP	65	144	3
TAP	65	192	4
TAP	65	240	2
TAP	65	288	5
TAP	65	336	3
TAP	65	336	4
TAP	66	48	0
STR	66	96	0
SCL	66	96	0	96	192	1
TAP	66	144	6
HLD	66	192	6	288
TTP	67	96	0	C	0	M1

T_REC_TAP	170
T_REC_BRK	14
T_REC_XTP	45
T_REC_HLD	64
T_REC_XHO	0
T_REC_STR	52
T_REC_BST	0
T_REC_XST	4
T_REC_TTP	28
T_REC_THO	4
T_REC_SLD	58
T_REC_ALL	439
T_NUM_TAP	299
T_NUM_BRK	14
T_NUM_HLD	68
T_NUM_SLD	58
T_NUM_ALL	439
T_JUDGE_TAP	313
T_JUDGE_HLD	132
T_JUDGE_SLD	58
T_JUDGE_ALL	503
TTM_EACHPAIRS	89
TTM_SCR_TAP	149500
TTM_SCR_BRK	36400
TTM_SCR_HLD	68000
TTM_SCR_SLD	87000
TTM_SCR_ALL	340900
TTM_SCR_S	329350
TTM_SCR_SS	339500
TTM_RAT_ACV	10041

