VERSION	0.00.00	1.03.00
FES_MODE	0
BPM_DEF	180.000	180.000	180.000	180.000
MET_DEF	4	4
RESOLUTION	384
CLK_DEF	384
COMPATIBLE_CODE	MA2

BPM	0	0	180.000
MET	0	0	4	4

XHO	1	0	3	384
HLD	2	0	4	384
HLD	3	0	2	384
HLD	4	0	3	384
HLD	5	0	4	384
HLD	6	0	5	192
XTP	6	192	2
XHO	7	0	1	72
XHO	7	72	2	72
XTP	7	144	3
XTP	7	240	4
XTP	7	288	4
XHO	8	0	6	72
XHO	8	72	5	72
XTP	8	144	4
XTP	8	240	3
XTP	8	288	3
HLD	9	0	1	72
HLD	9	72	2	72
TAP	9	144	3
TAP	9	240	4
TAP	9	288	4
HLD	10	0	1	72
HLD	10	72	2	72
TAP	10	144	3
TAP	10	240	4
TAP	10	288	4
HLD	11	0	6	72
HLD	11	72	5	72
TAP	11	144	4
TAP	11	240	3
TAP	11	288	3
HLD	12	0	1	72
HLD	12	72	2	72
TAP	12	144	3
TAP	12	240	4
TAP	12	288	4
TAP	13	0	6
TAP	13	48	6
TAP	13	96	7
TAP	13	192	1
TAP	13	240	1
STR	13	288	0
SCL	13	288	0	96	288	1
XTP	15	0	0
HLD	15	96	2	288
TAP	15	96	4
TAP	15	192	4
TAP	15	288	3
TAP	16	0	4
HLD	16	96	1	288
TAP	16	96	4
TAP	16	192	4
TAP	16	288	3
TAP	17	0	4
HLD	17	96	0	288
TAP	17	96	4
TAP	17	192	4
TAP	17	288	3
STR	18	0	4
SI_	18	0	4	96	96	0
XTP	18	240	1
XTP	18	336	1
TAP	19	96	3
HLD	19	96	5	288
TAP	19	192	3
TAP	19	288	4
TAP	20	0	3
TAP	20	96	3
HLD	20	96	6	288
TAP	20	192	3
TAP	20	288	4
TAP	21	0	3
TAP	21	96	3
HLD	21	96	7	288
TAP	21	192	3
TAP	21	288	4
STR	22	0	3
SCR	22	0	3	96	240	1
TTP	23	96	0	C	1	M1
TTP	23	288	0	E	0	M1
TTP	24	96	6	E	0	M1
TAP	24	288	4
TAP	24	288	5
TAP	25	0	4
TAP	25	0	5
TTP	25	96	0	C	1	M1
TTP	25	96	3	B	0	M1
TTP	25	96	6	B	0	M1
TTP	25	288	0	E	0	M1
TTP	26	96	2	E	0	M1
TAP	26	288	2
TAP	26	288	3
TAP	27	0	2
TAP	27	0	3
TTP	27	96	0	C	1	M1
TTP	27	96	1	B	0	M1
TTP	27	96	4	B	0	M1
TTP	27	288	0	E	0	M1
TTP	28	96	6	E	0	M1
TAP	28	288	4
TAP	28	288	5
TAP	29	0	4
TAP	29	0	5
TAP	29	96	5
HLD	29	144	5	192
XTP	29	240	0
XTP	29	336	0
TAP	30	96	2
HLD	30	144	2	192
XTP	30	240	7
XTP	30	336	7
HLD	31	96	5	96
HLD	31	192	7	96
HLD	31	288	0	96
HLD	32	0	2	96
BRK	32	96	5
STR	32	288	6
SXL	32	288	6	96	240	3
TAP	33	288	2
TAP	34	96	2
TAP	34	96	3
STR	34	288	1
SXR	34	288	1	96	240	4
TAP	35	288	5
TAP	36	96	4
TAP	36	96	5
TTP	36	288	0	C	1	M1
TTP	36	288	1	B	0	M1
TTP	36	288	2	B	0	M1
TTP	36	288	2	E	0	M1
TTP	36	288	5	B	0	M1
TTP	36	288	6	E	0	M1
TTP	36	288	6	B	0	M1
TAP	37	96	0
TAP	37	96	7
TAP	37	192	2
TAP	37	192	4
TAP	37	288	0
TAP	37	288	7
TAP	38	0	3
TAP	38	0	5
TAP	38	96	0
TAP	38	96	7
TAP	38	192	1
TAP	38	192	3
TAP	38	288	0
TAP	38	288	7
TAP	39	0	4
TAP	39	0	6
HLD	39	96	0	96
TAP	39	96	7
HLD	39	192	2	96
HLD	39	288	4	96
XTP	40	0	6
XTP	40	48	6
TAP	40	144	0
TAP	40	192	7
TAP	40	240	0
BRK	40	288	1
BRK	40	288	6
TAP	41	96	0
TAP	41	96	7
TAP	41	192	3
TAP	41	192	5
TAP	41	288	0
TAP	41	288	7
TAP	42	0	2
TAP	42	0	4
TAP	42	96	0
TAP	42	96	7
TAP	42	192	4
TAP	42	192	6
TAP	42	288	0
TAP	42	288	7
TAP	43	0	0
STR	43	0	7
SCL	43	0	7	96	192	2
XTP	44	0	0
XTP	44	48	0
TAP	44	144	7
TAP	44	192	0
TAP	44	240	7
BRK	44	288	1
BRK	44	288	6
TAP	45	96	0
TAP	45	96	6
TAP	45	192	4
TAP	45	192	5
TAP	45	288	1
TAP	45	288	7
TAP	46	0	2
TAP	46	0	3
TAP	46	96	0
TAP	46	96	6
TAP	46	192	4
TAP	46	192	5
TAP	46	288	1
TAP	46	288	7
TAP	47	0	1
TAP	47	0	3
TAP	47	96	0
HLD	47	96	7	96
HLD	47	192	5	96
HLD	47	288	3	96
XTP	48	0	1
XTP	48	48	1
TAP	48	144	6
TAP	48	192	7
TAP	48	240	6
BRK	48	288	0
BRK	48	288	5
TAP	49	96	1
TAP	49	96	7
TAP	49	192	2
TAP	49	192	3
TAP	49	288	0
TAP	49	288	6
TAP	50	0	4
TAP	50	0	5
TAP	50	96	1
TAP	50	96	7
TAP	50	192	2
TAP	50	192	3
TAP	50	288	0
TAP	50	288	6
STR	51	0	0
SCR	51	0	0	96	192	5
TAP	51	0	6
XTP	52	0	7
XTP	52	48	7
TAP	52	144	1
TAP	52	192	0
TAP	52	240	1
BRK	52	288	2
BRK	52	288	7
TAP	53	96	1
TAP	53	96	3
TAP	53	192	2
HLD	53	288	3	96
TAP	53	288	4
BRK	54	0	7
TAP	54	96	4
TAP	54	96	6
TAP	54	192	5
TAP	54	288	3
HLD	54	288	4	96
BRK	55	0	0
TAP	55	96	1
TAP	55	96	3
TAP	55	192	2
HLD	55	288	3	96
TAP	55	288	4
BRK	56	0	7
TAP	56	96	4
TAP	56	96	6
TAP	56	192	5
TAP	56	288	3
HLD	56	288	4	96
BST	57	0	0
SCR	57	0	0	96	192	6
XTP	57	288	7
STR	58	0	7
SI_	58	0	7	96	48	3
XTP	58	192	0
BRK	58	288	1
BRK	58	288	5
HLD	59	96	2	72
HLD	59	168	1	72
TAP	59	240	0
TAP	59	336	7
TAP	60	0	0
TAP	60	0	7
HLD	60	96	5	72
HLD	60	168	6	72
TAP	60	240	7
TAP	60	336	0
TAP	61	0	0
TAP	61	0	7
HLD	61	96	2	72
HLD	61	168	1	72
TAP	61	240	0
TAP	61	336	7
TAP	62	0	0
TAP	62	0	7
HLD	62	96	2	72
HLD	62	168	1	72
TAP	62	240	0
TAP	62	336	7
TAP	63	0	0
TAP	63	0	7
HLD	63	96	5	72
HLD	63	168	6	72
TAP	63	240	7
TAP	63	336	0
TAP	64	0	0
TAP	64	0	7
HLD	64	96	2	72
HLD	64	168	1	72
TAP	64	240	0
TAP	64	336	7
TAP	65	0	0
TAP	65	0	7
TAP	65	96	6
TAP	65	144	6
TAP	65	192	6
TAP	65	192	7
TAP	65	288	1
TAP	65	336	1
TAP	66	0	0
STR	66	0	1
SCL	66	0	1	96	288	2
TTP	67	96	0	C	1	M1
TTP	67	96	1	E	0	M1
TTP	67	96	5	E	0	M1

T_REC_TAP	182
T_REC_BRK	14
T_REC_XTP	24
T_REC_HLD	47
T_REC_XHO	5
T_REC_STR	9
T_REC_BST	1
T_REC_XST	0
T_REC_TTP	23
T_REC_THO	0
T_REC_SLD	10
T_REC_ALL	315
T_NUM_TAP	238
T_NUM_BRK	15
T_NUM_HLD	52
T_NUM_SLD	10
T_NUM_ALL	315
T_JUDGE_TAP	253
T_JUDGE_HLD	164
T_JUDGE_SLD	10
T_JUDGE_ALL	427
TTM_EACHPAIRS	69
TTM_SCR_TAP	119000
TTM_SCR_BRK	39000
TTM_SCR_HLD	52000
TTM_SCR_SLD	15000
TTM_SCR_ALL	225000
TTM_SCR_S	216800
TTM_SCR_SS	223500
TTM_RAT_ACV	10067

