VERSION	0.00.00	1.03.00
FES_MODE	0
BPM_DEF	180.000	180.000	180.000	180.000
MET_DEF	4	4
RESOLUTION	384
CLK_DEF	384
COMPATIBLE_CODE	MA2

BPM	0	0	180.000
MET	0	0	4	4

XHO	1	0	5	384
XTP	2	0	4
HLD	3	0	2	384
TAP	4	0	3
HLD	5	0	4	384
TAP	6	0	3
XTP	6	192	3
XTP	6	192	4
TAP	7	0	2
TAP	7	96	2
TAP	7	192	0
TAP	7	192	1
TAP	7	288	0
TAP	7	288	1
TAP	8	0	7
TAP	8	96	7
TAP	8	192	0
TAP	8	192	7
TAP	8	288	0
TAP	8	288	7
TAP	9	0	6
TAP	9	96	6
TAP	9	192	6
TAP	9	192	7
TAP	9	288	6
TAP	9	288	7
TAP	10	0	0
TAP	10	96	0
BRK	10	192	1
BRK	10	192	6
TAP	11	0	6
TAP	11	96	6
TAP	11	192	6
TAP	11	192	7
TAP	11	288	6
TAP	11	288	7
TAP	12	0	0
TAP	12	96	0
TAP	12	192	0
TAP	12	192	7
TAP	12	288	0
TAP	12	288	7
TAP	13	0	1
TAP	13	96	1
TAP	13	192	0
TAP	13	288	0
TAP	14	0	7
TAP	14	96	7
BRK	14	192	1
BRK	14	192	6
XTP	15	0	5
XHO	15	96	5	192
TAP	15	288	4
TAP	16	0	4
HLD	16	96	3	192
TAP	16	288	4
TAP	17	0	4
HLD	17	96	5	192
TAP	17	288	4
TAP	18	0	3
TAP	18	96	2
TAP	18	192	2
XTP	18	288	2
XTP	18	288	3
HLD	19	96	2	192
TAP	19	288	3
TAP	20	0	3
HLD	20	96	4	192
TAP	20	288	3
TAP	21	0	3
TAP	21	96	2
TAP	21	192	2
TAP	21	288	1
TAP	22	0	1
TAP	22	96	0
TAP	22	192	0
BRK	22	288	1
BRK	22	288	6
STR	23	96	7
SI_	23	96	7	96	192	4
TAP	24	96	3
TAP	24	288	3
STR	25	96	3
SI_	25	96	3	96	192	0
TAP	26	96	7
TAP	26	288	7
STR	27	96	7
SCL	27	96	7	96	192	4
TAP	28	96	3
TAP	28	288	3
STR	29	96	3
SCL	29	96	3	96	192	0
STR	30	96	7
SCL	30	96	7	96	192	4
TAP	31	96	3
TAP	31	192	2
TAP	31	288	1
TAP	32	0	0
BRK	32	96	1
BRK	32	96	6
TTP	32	288	6	B	0	L1
TTP	33	96	0	C	0	L1
TTP	33	288	2	B	0	L1
TTP	34	288	1	B	0	L1
TTP	35	96	0	C	0	L1
TTP	35	288	5	B	0	L1
TTP	36	96	0	C	1	L1
TAP	37	96	6
TAP	37	192	6
TAP	37	288	6
TAP	37	288	7
TAP	38	0	6
TAP	38	0	7
TAP	38	96	1
TAP	38	192	1
TAP	38	288	0
TAP	38	288	1
TAP	39	0	0
TAP	39	0	1
TAP	39	96	2
TAP	39	192	3
TAP	39	288	4
TAP	40	0	5
TAP	40	96	6
TAP	40	192	6
TAP	40	192	7
BRK	40	288	0
BRK	40	288	5
TAP	41	96	7
TAP	41	192	6
TAP	41	288	5
TAP	42	0	4
TAP	42	0	5
TAP	42	96	3
TAP	42	192	2
TAP	42	288	1
TAP	43	0	0
TAP	43	0	1
TAP	43	96	2
TAP	43	192	3
TAP	43	288	4
TAP	44	0	5
TAP	44	96	6
TAP	44	192	0
TAP	44	192	7
BRK	44	288	1
BRK	44	288	6
TAP	45	96	1
TAP	45	192	1
TAP	45	288	0
TAP	45	288	1
TAP	46	0	0
TAP	46	0	1
TAP	46	96	6
TAP	46	192	6
TAP	46	288	6
TAP	46	288	7
TAP	47	0	6
TAP	47	0	7
TAP	47	96	5
TAP	47	192	4
TAP	47	288	3
TAP	48	0	2
TAP	48	96	1
TAP	48	192	0
TAP	48	192	1
BRK	48	288	2
BRK	48	288	7
TAP	49	96	0
TAP	49	192	1
TAP	49	288	2
TAP	50	0	2
TAP	50	0	3
TAP	50	96	4
TAP	50	192	5
TAP	50	288	6
TAP	51	0	6
TAP	51	0	7
TAP	51	96	5
TAP	51	192	4
TAP	51	288	3
TAP	52	0	2
TAP	52	96	1
TAP	52	192	0
TAP	52	192	7
BRK	52	288	1
BRK	52	288	6
HLD	53	96	6	192
TAP	53	288	7
TAP	54	0	0
HLD	54	96	1	192
TAP	54	288	0
TAP	55	0	7
TAP	55	96	6
TAP	55	192	6
TAP	55	192	7
TAP	55	288	1
TAP	56	0	0
TAP	56	0	1
TAP	56	96	7
TAP	56	192	7
BRK	56	288	1
BRK	56	288	6
TAP	57	96	7
TAP	57	192	7
TAP	57	288	0
TAP	58	0	0
XTP	58	96	0
XTP	58	96	7
XTP	58	192	1
XTP	58	192	6
BRK	58	288	2
BRK	58	288	5
TAP	59	96	4
TAP	59	192	5
TAP	59	288	6
TAP	60	0	6
TAP	60	0	7
TAP	60	96	0
TAP	60	192	1
TAP	60	288	2
TAP	61	0	2
TAP	61	0	3
TAP	61	96	3
TAP	61	192	2
TAP	61	288	1
TAP	62	0	0
TAP	62	0	1
TAP	62	96	7
TAP	62	192	7
XTP	62	288	0
XTP	62	288	6
TAP	63	96	7
TAP	63	192	6
TAP	63	288	5
TAP	64	0	4
TAP	64	0	5
TAP	64	96	3
TAP	64	192	2
TAP	64	288	1
TAP	65	0	0
TAP	65	0	1
TAP	65	96	0
TAP	65	192	1
TAP	65	288	2
TAP	66	0	3
TAP	66	96	4
TAP	66	192	5
TAP	66	288	6
TAP	67	0	0
TAP	67	0	7
BRK	67	96	1
BRK	67	96	6

T_REC_TAP	192
T_REC_BRK	22
T_REC_XTP	12
T_REC_HLD	8
T_REC_XHO	2
T_REC_STR	5
T_REC_BST	0
T_REC_XST	0
T_REC_TTP	7
T_REC_THO	0
T_REC_SLD	5
T_REC_ALL	253
T_NUM_TAP	216
T_NUM_BRK	22
T_NUM_HLD	10
T_NUM_SLD	5
T_NUM_ALL	253
T_JUDGE_TAP	238
T_JUDGE_HLD	52
T_JUDGE_SLD	5
T_JUDGE_ALL	295
TTM_EACHPAIRS	50
TTM_SCR_TAP	108000
TTM_SCR_BRK	57200
TTM_SCR_HLD	10000
TTM_SCR_SLD	7500
TTM_SCR_ALL	182700
TTM_SCR_S	175100
TTM_SCR_SS	180500
TTM_RAT_ACV	10121

