VERSION	0.00.00	1.03.00
FES_MODE	0
BPM_DEF	180.000	180.000	180.000	180.000
MET_DEF	4	4
RESOLUTION	384
CLK_DEF	384
COMPATIBLE_CODE	MA2

BPM	0	0	180.000
MET	0	0	4	4
MET	15	0	4	1
MET	15	96	4	4
MET	31	96	4	6
MET	32	288	4	4
MET	36	288	4	2
MET	37	96	4	4

XTP	7	0	0
XTP	8	0	0
XTP	9	0	0
XTP	10	0	0
XTP	11	0	7
XTP	12	0	7
XST	13	0	7
SI_	13	0	7	96	288	3
XTP	15	96	0
TAP	15	288	0
TAP	16	96	0
TAP	17	96	1
TAP	17	288	1
XTP	18	96	1
TAP	19	96	2
TAP	19	288	2
TAP	20	96	2
TAP	21	96	3
TAP	21	96	4
TAP	21	288	3
TAP	21	288	4
XTP	22	96	3
XTP	22	96	4
TTP	23	96	5	B	0	L1
TTP	24	96	6	B	0	L1
TTP	25	96	7	B	0	L1
TTP	26	96	0	B	0	L1
TTP	27	96	1	B	0	L1
TTP	28	96	2	B	0	L1
THO	29	96	0	768	C	1	L1
XST	32	288	7
SI_	32	288	7	96	288	3
XST	34	288	0
SI_	34	288	0	96	288	4
TAP	37	96	7
TAP	37	288	7
TAP	38	96	6
TAP	38	288	6
HLD	39	96	5	192
XTP	40	96	4
XTP	40	192	4
BRK	40	288	4
TAP	41	96	3
TAP	41	288	3
TAP	42	96	2
TAP	42	288	2
HLD	43	96	1	192
TAP	44	96	0
TAP	44	192	0
BRK	44	288	0
BRK	44	288	7
TAP	45	96	0
TAP	45	288	0
TAP	46	96	1
TAP	46	288	1
HLD	47	96	2	192
XTP	48	96	3
XTP	48	192	3
BRK	48	288	3
TAP	49	96	4
TAP	49	288	4
TAP	50	96	5
TAP	50	288	5
HLD	51	96	6	192
TAP	52	96	7
TAP	52	192	7
BRK	52	288	0
BRK	52	288	7
TAP	53	96	6
TAP	53	288	6
TAP	54	96	6
TAP	54	96	7
TAP	55	96	1
TAP	55	288	1
TAP	56	96	0
TAP	56	96	1
TAP	57	96	7
TAP	57	288	7
TAP	58	96	0
TAP	58	288	0
XST	59	96	7
SI_	59	96	7	96	288	3
XST	61	96	0
SI_	61	96	0	96	288	4
XTP	63	96	7
XTP	63	288	7
XTP	64	96	0
XTP	64	288	0
TAP	65	96	1
TAP	65	288	1
STR	66	96	1
SI_	66	96	1	96	288	5

T_REC_TAP	45
T_REC_BRK	6
T_REC_XTP	18
T_REC_HLD	4
T_REC_XHO	0
T_REC_STR	1
T_REC_BST	0
T_REC_XST	5
T_REC_TTP	6
T_REC_THO	1
T_REC_SLD	6
T_REC_ALL	92
T_NUM_TAP	75
T_NUM_BRK	6
T_NUM_HLD	5
T_NUM_SLD	6
T_NUM_ALL	92
T_JUDGE_TAP	81
T_JUDGE_HLD	32
T_JUDGE_SLD	6
T_JUDGE_ALL	119
TTM_EACHPAIRS	7
TTM_SCR_TAP	37500
TTM_SCR_BRK	15600
TTM_SCR_HLD	5000
TTM_SCR_SLD	9000
TTM_SCR_ALL	67100
TTM_SCR_S	64550
TTM_SCR_SS	66500
TTM_RAT_ACV	10090

