VERSION	0.00.00	1.03.00
FES_MODE	0
BPM_DEF	271.000	271.000	271.000	271.000
MET_DEF	4	4
RESOLUTION	384
CLK_DEF	384
COMPATIBLE_CODE	MA2

BPM	0	0	271.000
MET	0	0	4	4

BRK	2	336	0
STR	4	0	1
SCL	4	0	1	96	192	6
STR	4	192	5
SI_	4	192	5	96	192	1
STR	5	0	2
SI_	5	0	2	96	144	5
XTP	5	192	6
STR	6	0	0
SI_	6	0	0	96	144	4
STR	6	0	6
SI_	6	0	6	96	144	0
XTP	7	0	1
XTP	7	192	1
STR	8	0	0
SI_	8	0	0	96	288	3
XTP	9	0	7
XTP	9	192	7
STR	10	0	6
SI_	10	0	6	96	192	1
STR	10	192	4
SCL	10	192	4	96	192	1
BRK	11	0	0
XTP	11	192	1
XTP	11	192	5
STR	12	0	6
SI_	12	0	6	96	144	1
STR	12	192	0
SUR	12	192	0	96	192	4
XTP	13	0	7
XTP	13	192	7
TAP	14	0	0
STR	14	192	0
SV_	14	192	0	96	192	3
SV_	14	192	0	96	192	5
XTP	15	192	2
XTP	15	192	6
TAP	16	0	0
TAP	16	96	1
TAP	16	96	7
TAP	16	192	2
TAP	16	192	6
TAP	17	0	7
TAP	17	96	0
TAP	17	96	6
TAP	17	192	1
TAP	17	192	5
HLD	18	0	4	96
HLD	18	96	3	96
HLD	18	192	4	96
TAP	18	288	3
XHO	19	0	1	96
XHO	19	0	6	96
BRK	19	192	1
BRK	19	192	6
STR	20	0	6
SI_	20	0	6	96	48	4
TAP	20	96	3
STR	20	192	1
SI_	20	192	1	96	48	3
TAP	20	288	4
STR	21	0	6
SI_	21	0	6	96	48	3
TAP	21	96	2
STR	21	192	1
SI_	21	192	1	96	48	4
TAP	21	288	5
STR	22	0	7
SI_	22	0	7	96	48	3
TAP	22	96	2
STR	22	192	0
SI_	22	192	0	96	48	4
TAP	22	288	5
TAP	23	0	3
HLD	23	0	6	192
BRK	23	192	0
STR	24	0	1
SI_	24	0	1	96	48	3
TAP	24	96	0
STR	24	192	6
SI_	24	192	6	96	48	4
TAP	24	288	7
STR	25	0	1
SI_	25	0	1	96	48	4
TAP	25	96	0
STR	25	192	6
SCL	25	192	6	96	48	3
TAP	25	240	7
TAP	25	288	7
STR	26	0	1
SI_	26	0	1	96	48	4
TAP	26	96	0
STR	26	192	7
SI_	26	192	7	96	48	3
TAP	26	288	1
HLD	27	0	1	96
HLD	27	0	5	96
XTP	27	192	0
XTP	27	256	0
XTP	27	320	0
STR	28	0	6
SI_	28	0	6	96	48	0
TAP	28	96	3
STR	28	192	1
SI_	28	192	1	96	48	3
TAP	28	288	4
STR	29	0	6
SI_	29	0	6	96	48	3
TAP	29	96	2
STR	29	192	1
SI_	29	192	1	96	48	6
TAP	29	288	5
STR	30	0	7
SI_	30	0	7	96	48	3
TAP	30	96	2
STR	30	192	0
SI_	30	192	0	96	48	4
TAP	30	288	5
TAP	31	0	3
HLD	31	0	6	192
BRK	31	192	0
TAP	32	0	0
TAP	32	48	0
TAP	32	96	7
TAP	32	144	7
TAP	32	192	1
TAP	32	240	1
TAP	32	288	6
TAP	32	336	6
TAP	33	0	0
TAP	33	48	0
TAP	33	96	1
TAP	33	144	1
TAP	33	192	2
TAP	33	240	2
TAP	33	288	3
TAP	33	336	3
TAP	34	0	4
TAP	34	48	4
TAP	34	96	5
TAP	34	144	5
TAP	34	192	6
TAP	34	240	6
TAP	34	288	7
TAP	34	336	7
TAP	35	0	0
STR	35	48	0
SI_	35	48	0	96	48	4
TAP	35	144	7
TAP	35	192	7
TAP	35	336	1
HLD	35	336	6	240
STR	36	96	0
SI_	36	96	0	96	48	4
BRK	36	192	0
TAP	37	0	3
TAP	37	0	4
TTP	37	192	1	E	0	M1
TTP	37	192	1	B	0	M1
TTP	37	192	6	B	0	M1
TTP	37	192	7	E	0	M1
TAP	38	0	2
TAP	38	0	3
TTP	38	192	0	E	0	M1
TTP	38	192	0	B	0	M1
TTP	38	192	6	B	0	M1
TTP	38	192	7	E	0	M1
TAP	39	0	4
TAP	39	0	5
TTP	39	192	0	E	0	M1
TTP	39	192	1	E	0	M1
TTP	39	192	1	B	0	M1
TTP	39	192	7	B	0	M1
TAP	40	0	3
TAP	40	0	4
XTP	40	192	1
XTP	40	192	6
TAP	41	0	3
TAP	41	0	4
TTP	41	192	1	E	0	M1
TTP	41	192	1	B	0	M1
TTP	41	192	6	B	0	M1
TTP	41	192	7	E	0	M1
TAP	42	0	4
TAP	42	0	5
TTP	42	192	0	E	0	M1
TTP	42	192	1	E	0	M1
TTP	42	192	1	B	0	M1
TTP	42	192	7	B	0	M1
TAP	43	0	2
TAP	43	0	3
TTP	43	192	0	B	0	M1
TTP	43	192	0	E	0	M1
TTP	43	192	6	B	0	M1
TTP	43	192	7	E	0	M1
TAP	44	0	3
TAP	44	0	4
BRK	44	192	1
BRK	44	192	6
TAP	45	0	5
TAP	45	96	4
TAP	45	96	5
TAP	45	192	3
HLD	45	192	6	144
HLD	45	336	5	144
TAP	46	96	4
XTP	46	192	2
XTP	46	192	5
TAP	47	0	4
TAP	47	96	3
TAP	47	96	4
TAP	47	192	2
HLD	47	192	5	144
HLD	47	336	4	144
TAP	48	96	3
XTP	48	192	1
XTP	48	192	4
TAP	49	0	2
TAP	49	96	2
TAP	49	96	3
TAP	49	192	1
HLD	49	192	4	144
HLD	49	336	2	144
HLD	50	96	1	96
BRK	50	192	0
HLD	51	0	0	144
TAP	51	144	7
TAP	51	192	0
TAP	51	288	1
TAP	51	288	6
BRK	52	0	3
BRK	52	0	4
BRK	52	96	2
BRK	52	96	5
BRK	52	192	1
BRK	52	192	6
STR	53	0	7
SCL	53	0	7	96	192	3
TTP	53	192	5	B	0	M1
STR	54	0	0
SCR	54	0	0	96	192	4
TTP	54	192	2	B	0	M1
TTP	54	193	3	B	0	M1
STR	55	0	7
SCL	55	0	7	96	192	3
TTP	55	192	6	B	0	M1
TTP	55	193	6	E	0	M1
TTP	55	194	5	B	0	M1
STR	56	0	0
SCR	56	0	0	96	192	4
TTP	56	192	1	E	0	M1
TTP	56	193	1	B	0	M1
TTP	56	194	2	E	0	M1
TTP	56	195	2	B	0	M1
STR	57	0	7
SCL	57	0	7	96	96	4
STR	57	192	0
SCR	57	192	0	96	96	3
STR	58	0	4
SCR	58	0	4	96	96	7
STR	58	192	3
SCL	58	192	3	96	96	0
STR	59	0	7
SCL	59	0	7	96	96	4
TAP	59	192	1
TAP	59	288	1
XTP	60	0	2
XTP	60	24	3
XTP	60	48	4
XTP	60	72	5
XTP	60	96	6
XTP	60	120	7
XTP	60	144	0
XTP	60	168	1
BRK	60	192	2
BRK	60	192	6
STR	61	0	7
SI_	61	0	7	96	48	3
STR	61	96	1
SI_	61	96	1	96	48	4
TAP	61	192	0
TAP	61	240	0
STR	61	336	6
SCL	61	336	6	96	96	3
STR	62	48	3
SUL	62	48	3	96	96	6
TAP	62	144	0
TAP	62	192	0
XTP	62	288	1
XTP	62	288	5
TTP	63	0	1	B	0	M1
TTP	63	48	7	B	0	M1
TTP	63	96	3	B	0	M1
TTP	63	144	5	B	0	M1
TTP	63	192	0	B	0	M1
TTP	63	240	6	B	0	M1
TTP	63	288	2	B	0	M1
TTP	63	336	4	B	0	M1
TAP	64	0	0
TAP	64	48	7
TAP	64	96	1
TAP	64	144	6
TAP	64	192	0
TAP	64	240	7
BRK	64	288	1
BRK	64	288	6
STR	65	0	0
SI_	65	0	0	96	48	4
STR	65	96	6
SI_	65	96	6	96	48	3
TAP	65	192	7
TAP	65	240	7
STR	65	336	0
SCR	65	336	0	96	96	3
STR	66	48	3
SUR	66	48	3	96	96	0
TAP	66	144	5
TAP	66	192	5
XTP	66	288	2
XTP	66	288	6
TTP	67	0	1	E	0	M1
TTP	67	48	7	E	0	M1
TTP	67	96	2	E	0	M1
TTP	67	144	6	E	0	M1
TTP	67	192	3	E	0	M1
TTP	67	240	5	E	0	M1
TTP	67	288	0	C	0	M1
TAP	68	0	7
TAP	68	64	7
TAP	68	128	7
BRK	68	192	1
BRK	68	192	6
STR	69	0	7
SI_	69	0	7	96	48	3
STR	69	96	1
SI_	69	96	1	96	48	4
TAP	69	192	0
TAP	69	240	0
TAP	69	336	2
TAP	69	336	7
TAP	70	48	5
TAP	70	96	5
TAP	70	144	4
TAP	70	192	6
XTP	70	288	3
XTP	70	288	7
TAP	71	0	7
TAP	71	48	0
TAP	71	96	6
TAP	71	144	1
TTP	71	192	5	E	0	M1
TTP	71	240	3	E	0	M1
TTP	71	288	5	B	0	M1
TTP	71	336	2	B	0	M1
TAP	72	0	7
TAP	72	48	0
TAP	72	96	6
TAP	72	144	1
TTP	72	192	5	E	0	M1
TTP	72	240	3	E	0	M1
TTP	72	288	5	B	0	M1
TTP	72	336	2	B	0	M1
STR	73	0	7
SI_	73	0	7	96	48	3
TAP	73	96	0
XTP	73	192	1
XTP	73	256	1
XTP	73	320	1
TAP	74	0	7
TAP	74	48	0
STR	74	96	7
SI_	74	96	7	96	48	2
SI_	74	96	7	96	48	4
BRK	74	192	7
XTP	74	288	1
XTP	74	288	5
TAP	75	0	0
TAP	75	48	7
TAP	75	96	1
TAP	75	144	6
TAP	75	192	2
TAP	75	240	3
TAP	75	288	1
TAP	75	336	4
STR	76	0	0
SI_	76	0	0	96	48	2
STR	76	96	7
SI_	76	96	7	96	48	5
STR	76	192	3
SI_	76	192	3	96	48	0
STR	76	288	4
SI_	76	288	4	96	48	7
BRK	77	0	1
TTP	77	192	1	B	0	M1
TTP	77	192	2	B	0	M1
TTP	77	192	3	E	0	M1
TTP	78	0	5	E	0	M1
TTP	78	0	5	B	0	M1
TTP	78	0	6	B	0	M1
TTP	78	192	0	C	0	M1
TTP	78	192	2	E	0	M1
TTP	78	192	6	E	0	M1
HLD	79	0	6	288
STR	79	288	4
SI_	79	288	4	96	96	2
SI_	79	288	4	96	96	6
HLD	81	0	1	288
STR	81	288	3
SI_	81	288	3	96	96	1
SI_	81	288	3	96	96	5
HLD	83	0	6	288
STR	83	288	4
SI_	83	288	4	96	96	2
SI_	83	288	4	96	96	6
HLD	85	0	1	288
STR	85	288	3
SI_	85	288	3	96	96	1
SI_	85	288	3	96	96	5
STR	87	0	6
SI_	87	0	6	96	384	1
STR	88	96	3
SI_	88	96	3	96	96	1
SI_	88	96	3	96	96	5
HLD	89	0	0	288
STR	89	288	4
SI_	89	288	4	96	96	2
SI_	89	288	4	96	96	6
HLD	91	0	7	288
STR	91	288	3
SI_	91	288	3	96	96	1
SI_	91	288	3	96	96	5
HLD	93	0	0	288
STR	93	288	5
SCR	93	288	5	96	336	3
TTP	94	0	0	C	0	M1
TTP	95	0	0	C	0	M1
TTP	95	192	1	B	0	M1
TTP	95	192	1	E	0	M1
TTP	95	192	6	B	0	M1
TTP	95	192	7	E	0	M1
TAP	96	0	2
TAP	96	0	3
TTP	96	192	0	B	0	M1
TTP	96	192	0	E	0	M1
TTP	96	192	6	B	0	M1
TTP	96	192	7	E	0	M1
TAP	97	0	4
TAP	97	0	5
TAP	97	96	4
TAP	97	97	3
TAP	97	192	2
TAP	97	192	3
TAP	97	288	2
TAP	97	289	1
TAP	98	0	2
TAP	98	0	3
TAP	98	96	4
TAP	98	97	3
BRK	98	192	1
BRK	98	192	6
TAP	99	0	3
TAP	99	0	4
TTP	99	192	1	E	0	M1
TTP	99	192	1	B	0	M1
TTP	99	192	6	B	0	M1
TTP	99	192	7	E	0	M1
TAP	100	0	4
TAP	100	0	5
TTP	100	192	0	E	0	M1
TTP	100	192	1	B	0	M1
TTP	100	192	1	E	0	M1
TTP	100	192	7	B	0	M1
TAP	101	0	3
TAP	101	48	3
TAP	101	96	4
TAP	101	144	4
TAP	101	192	2
TAP	101	240	2
TAP	101	288	5
TAP	101	336	5
TAP	102	0	0
TAP	102	48	0
TAP	102	96	0
TAP	102	144	0
BRK	102	192	0
BRK	102	192	7
XTP	102	288	1
XTP	102	288	6
TAP	103	0	3
TAP	103	0	4
TTP	103	192	1	E	0	M1
TTP	103	192	1	B	0	M1
TTP	103	192	6	B	0	M1
TTP	103	192	7	E	0	M1
TAP	104	0	2
TAP	104	0	3
TTP	104	192	0	B	0	M1
TTP	104	192	0	E	0	M1
TTP	104	192	6	B	0	M1
TTP	104	192	7	E	0	M1
TTP	105	0	3	E	0	M1
TTP	105	48	3	B	0	M1
TTP	105	96	4	B	0	M1
TTP	105	144	5	E	0	M1
TTP	105	192	1	E	0	M1
TTP	105	240	0	B	0	M1
TTP	105	288	7	B	0	M1
TTP	105	336	7	E	0	M1
TTP	106	0	2	B	0	M1
TTP	106	0	2	E	0	M1
TTP	106	0	3	E	0	M1
TTP	106	96	5	E	0	M1
TTP	106	96	5	B	0	M1
TTP	106	96	6	E	0	M1
TTP	106	192	0	C	0	M1
TAP	107	0	0
TAP	107	0	6
TAP	107	96	1
TAP	107	96	7
TAP	107	192	2
TAP	107	192	5
TAP	108	0	0
TAP	108	0	7
STR	108	96	2
SI_	108	96	2	96	48	5
STR	108	96	6
SI_	108	96	6	96	48	1
BRK	108	192	2
BRK	108	192	6
STR	109	0	7
SI_	109	0	7	96	48	2
STR	109	96	4
SI_	109	96	4	96	48	0
TAP	109	192	6
TAP	109	240	6
STR	109	336	5
SUL	109	336	5	96	96	0
STR	110	48	0
SCL	110	48	0	96	48	5
TAP	110	144	2
TAP	110	192	2
XTP	110	288	0
XTP	110	288	4
TTP	111	0	1	E	0	M1
TTP	111	48	7	E	0	M1
TTP	111	96	3	B	0	M1
TTP	111	144	4	B	0	M1
TTP	111	192	1	B	0	M1
TTP	111	240	6	B	0	M1
TTP	111	288	3	E	0	M1
TTP	111	336	5	E	0	M1
TAP	112	0	0
TAP	112	48	7
TAP	112	96	1
TAP	112	144	6
TAP	112	192	0
TAP	112	240	7
BRK	112	288	1
BRK	112	288	6
STR	113	0	0
SI_	113	0	0	96	48	5
STR	113	96	3
SI_	113	96	3	96	48	7
TAP	113	192	1
TAP	113	240	1
STR	113	336	2
SUR	113	336	2	96	96	7
STR	114	48	7
SCR	114	48	7	96	48	2
TAP	114	144	5
TAP	114	192	5
XTP	114	288	3
XTP	114	288	7
TTP	115	0	7	E	0	M1
TTP	115	48	0	E	0	M1
TTP	115	96	1	E	0	M1
TTP	115	144	2	E	0	M1
TTP	115	192	3	E	0	M1
TTP	115	240	4	E	0	M1
TTP	115	288	5	E	0	M1
TTP	115	336	6	E	0	M1
TAP	116	0	0
TAP	116	64	0
TAP	116	128	0
BRK	116	192	1
BRK	116	192	6
STR	117	0	0
SI_	117	0	0	96	48	5
STR	117	96	3
SI_	117	96	3	96	48	7
TAP	117	192	1
TAP	117	240	1
TAP	117	336	2
TAP	117	336	7
TAP	118	48	6
TAP	118	96	6
TAP	118	144	7
TAP	118	192	5
XTP	118	288	0
XTP	118	288	4
TAP	119	0	1
TAP	119	48	0
TAP	119	96	2
TAP	119	144	7
TTP	119	192	3	E	0	M1
TTP	119	240	5	E	0	M1
TTP	119	288	2	B	0	M1
TTP	119	336	5	B	0	M1
TAP	120	0	0
TAP	120	48	7
TAP	120	96	1
TAP	120	144	6
TTP	120	192	3	E	0	M1
TTP	120	240	5	E	0	M1
TTP	120	288	2	B	0	M1
TTP	120	336	5	B	0	M1
STR	121	0	0
SSL	121	0	0	96	144	4
TAP	121	96	6
XTP	121	192	7
XTP	121	256	7
BRK	121	320	7
STR	122	0	3
SI_	122	0	3	96	48	0
TAP	122	96	4
STR	122	192	4
SI_	122	192	4	96	48	7
TAP	122	288	3
STR	123	0	1
SUR	123	0	1	96	48	5
TAP	123	96	7
STR	123	192	1
SI_	123	192	1	96	48	6
TAP	123	288	4
STR	124	0	0
SI_	124	0	0	96	48	3
STR	124	96	6
SI_	124	96	6	96	48	3
STR	124	192	2
SI_	124	192	2	96	48	7
STR	124	288	0
SI_	124	288	0	96	48	5
STR	125	0	3
SI_	125	0	3	96	48	0
STR	125	96	4
SCR	125	96	4	96	96	1
BRK	125	192	2
BRK	125	288	2
TAP	126	0	0
STR	126	0	1
SI_	126	0	1	96	48	4
TAP	126	96	7
STR	126	192	6
SI_	126	192	6	96	48	3
TAP	126	192	7
TAP	126	288	0
STR	127	0	1
SCR	127	0	1	96	96	5
STR	127	96	5
SCR	127	96	5	96	96	1
TAP	127	192	1
BRK	127	288	5
TAP	128	0	6
TAP	128	48	7
TAP	128	96	6
TAP	128	144	6
TAP	128	192	1
TAP	128	240	0
TAP	128	288	1
TAP	128	336	1
TAP	129	0	2
TAP	129	0	3
TAP	129	64	1
TAP	129	64	3
TAP	129	128	0
TAP	129	128	3
TAP	129	192	0
TAP	129	192	4
TAP	129	256	0
TAP	129	256	5
TAP	129	320	0
TAP	129	320	6
STR	130	0	7
SI_	130	0	7	96	48	3
STR	130	96	2
SI_	130	96	2	96	48	7
STR	130	192	5
SI_	130	192	5	96	48	0
STR	130	288	1
SI_	130	288	1	96	48	5
STR	131	0	7
SCR	131	0	7	96	96	3
STR	131	96	3
SCR	131	96	3	96	96	7
TAP	131	192	7
BRK	131	288	3
TAP	132	0	2
TAP	132	48	3
TAP	132	96	1
TAP	132	144	1
TAP	132	192	5
TAP	132	240	4
TAP	132	288	6
TAP	132	336	6
TAP	133	0	1
TAP	133	48	0
TAP	133	96	2
TAP	133	144	3
TAP	133	192	0
TAP	133	240	7
XTP	133	288	1
XTP	133	288	6
BRK	134	0	0
BRK	134	0	1
BRK	134	96	3
HLD	134	96	5	224
XTP	134	192	0
XTP	134	256	0
XTP	134	320	0
BRK	135	0	6
BRK	135	0	7
BRK	135	48	6
BRK	135	48	7
BST	135	96	6
SI_	135	96	6	96	48	3
BST	135	96	7
SI_	135	96	7	96	48	3
BRK	135	192	6
BRK	135	192	7
XTP	135	288	1
XTP	135	288	5
TAP	136	0	1
TAP	136	48	0
TAP	136	96	2
TAP	136	144	3
TAP	136	192	7
TAP	136	240	6
TAP	136	288	4
TAP	136	336	5
TAP	137	0	4
TAP	137	0	6
STR	137	96	0
SI_	137	96	0	96	48	4
TAP	137	96	1
TAP	137	192	0
TAP	137	192	6
TAP	137	288	3
STR	137	288	7
SF_	137	288	7	96	48	3
BRK	138	0	7
XTP	138	192	2
XHO	138	192	6	192
TAP	139	0	3
TAP	139	24	4
TAP	139	48	5
TAP	139	72	6
TAP	139	96	7
TAP	139	120	0
TAP	139	144	1
TAP	139	168	2
TAP	139	192	3
TAP	139	216	4
TAP	139	240	5
TAP	139	264	6
TAP	139	288	7
TAP	139	312	0
TAP	139	336	1
TAP	139	360	2
THO	140	0	0	768	C	1	M1
STR	140	0	3
SI_	140	0	3	96	480	6
TTP	142	0	6	B	0	M1
XHO	142	336	0	96
XHO	142	336	1	96
TAP	143	96	0
TAP	143	96	1
TAP	143	192	2
TAP	143	192	7
XHO	143	336	6	96
XHO	143	336	7	96
TAP	144	96	6
TAP	144	96	7
TAP	144	192	0
TAP	144	192	5
XHO	144	336	3	96
XHO	144	336	4	96
BST	145	96	0
SI_	145	96	0	96	48	3
BST	145	96	7
SI_	145	96	7	96	48	4
BRK	145	192	0
BRK	145	192	7
TTP	145	196	0	B	0	M1
TTP	145	200	7	B	0	M1
TTP	145	204	1	B	0	M1
TTP	145	208	6	B	0	M1
TTP	145	216	0	C	1	M1
TTP	145	220	2	B	0	M1
TTP	145	224	5	B	0	M1
TTP	145	228	3	E	0	M1
TTP	145	231	5	E	0	M1
TTP	145	234	3	B	0	M1
TTP	145	237	4	B	0	M1

T_REC_TAP	299
T_REC_BRK	51
T_REC_XTP	57
T_REC_HLD	24
T_REC_XHO	9
T_REC_STR	101
T_REC_BST	4
T_REC_XST	0
T_REC_TTP	143
T_REC_THO	1
T_REC_SLD	114
T_REC_ALL	803
T_NUM_TAP	600
T_NUM_BRK	55
T_NUM_HLD	34
T_NUM_SLD	114
T_NUM_ALL	803
T_JUDGE_TAP	655
T_JUDGE_HLD	69
T_JUDGE_SLD	114
T_JUDGE_ALL	838
TTM_EACHPAIRS	96
TTM_SCR_TAP	300000
TTM_SCR_BRK	143000
TTM_SCR_HLD	34000
TTM_SCR_SLD	171000
TTM_SCR_ALL	648000
TTM_SCR_S	623250
TTM_SCR_SS	642500
TTM_RAT_ACV	10085

