VERSION	0.00.00	1.03.00
FES_MODE	0
BPM_DEF	271.000	271.000	271.000	271.000
MET_DEF	4	4
RESOLUTION	384
CLK_DEF	384
COMPATIBLE_CODE	MA2

BPM	0	0	271.000
MET	0	0	4	4
CLK	0	0
CLK	0	96
CLK	0	192
CLK	0	288

TTP	2	336	0	C	1	M1
HLD	4	0	4	384
HLD	5	0	3	384
TAP	6	0	4
TAP	6	192	4
TAP	7	0	4
TAP	7	0	5
HLD	8	0	3	384
HLD	9	0	4	384
TAP	10	0	3
TAP	10	192	3
TTP	11	0	0	C	0	M1
TAP	12	0	4
TAP	12	96	4
TAP	12	192	4
TAP	13	0	3
TAP	13	96	3
TAP	13	192	3
TAP	14	0	4
TAP	14	96	4
TAP	14	192	3
TAP	14	288	3
TAP	15	0	4
TAP	15	192	2
TAP	15	192	5
TAP	16	0	3
TAP	16	96	3
TAP	16	192	3
TAP	17	0	4
TAP	17	96	4
TAP	17	192	4
HLD	18	0	3	192
HLD	18	0	4	192
STR	19	0	3
SI_	19	0	3	96	96	1
STR	19	0	4
SI_	19	0	4	96	96	6
XTP	20	0	6
XTP	20	0	7
TAP	20	96	6
TAP	20	192	6
TAP	20	288	6
TAP	21	0	0
TAP	21	96	0
TAP	21	192	7
TAP	21	288	7
TAP	22	0	1
TAP	22	96	1
TAP	22	192	1
TAP	22	288	1
BRK	23	0	0
BRK	23	0	2
XTP	24	0	4
XTP	24	0	6
TAP	24	96	6
TAP	24	192	6
TAP	24	288	6
TAP	25	0	1
TAP	25	96	1
TAP	25	192	5
TAP	25	288	5
TAP	26	0	2
TAP	26	96	2
TAP	26	192	4
TAP	26	288	4
STR	27	0	3
SCL	27	0	3	96	192	0
STR	27	0	4
SCR	27	0	4	96	192	7
XTP	28	0	0
XTP	28	0	7
XTP	28	96	1
XTP	28	96	6
TAP	28	192	1
TAP	28	288	1
TAP	29	0	7
TAP	29	96	7
TAP	29	192	0
TAP	29	288	0
TAP	30	0	6
TAP	30	96	6
TAP	30	192	6
TAP	30	288	6
BRK	31	0	5
BRK	31	0	7
XTP	32	0	0
XTP	32	48	7
XTP	32	96	0
XTP	32	144	7
XTP	32	192	0
XTP	32	240	7
XTP	32	288	0
XTP	32	336	7
XTP	33	0	1
XTP	33	48	6
XTP	33	96	1
XTP	33	144	6
XTP	33	192	1
XTP	33	240	6
XTP	33	288	1
XTP	33	336	6
XTP	34	0	0
XTP	34	48	7
XTP	34	96	0
XTP	34	144	7
XTP	34	192	0
XTP	34	240	7
XTP	34	288	0
THO	35	0	0	336	C	1	M1
TAP	37	0	3
TAP	37	192	3
TAP	38	0	4
TAP	38	192	4
TTP	39	0	2	B	0	M1
TTP	39	192	3	B	0	M1
TTP	40	0	2	E	0	M1
TTP	40	0	4	E	0	M1
TAP	41	0	4
TAP	41	192	4
TAP	42	0	3
TAP	42	192	3
TTP	43	0	5	B	0	M1
TTP	43	192	4	B	0	M1
TTP	44	0	4	E	0	M1
TTP	44	0	6	E	0	M1
TAP	45	0	2
TAP	45	96	2
TAP	45	192	2
TAP	46	0	3
TAP	46	96	3
TAP	46	192	3
TAP	47	0	2
TAP	47	96	2
TAP	47	192	3
TAP	47	288	3
TAP	48	0	2
TAP	48	192	1
TAP	48	192	4
TAP	49	0	5
TAP	49	96	5
TAP	49	192	5
TAP	50	0	4
TAP	50	96	4
TAP	50	192	4
TAP	51	0	5
TAP	51	96	5
TAP	51	192	4
TAP	52	0	3
TAP	52	0	4
BRK	52	192	1
BRK	52	192	6
TTP	53	0	0	C	0	M1
TTP	54	0	1	E	0	M1
TTP	54	0	5	E	0	M1
TTP	55	0	0	C	0	M1
TTP	55	0	3	E	0	M1
TTP	55	0	7	E	0	M1
TTP	56	0	0	C	0	M1
TTP	56	0	1	B	0	M1
TTP	56	0	2	B	0	M1
TTP	56	0	5	B	0	M1
TTP	56	0	6	B	0	M1
TAP	57	0	3
TAP	57	0	4
TAP	57	192	2
TAP	57	192	5
TAP	58	0	1
TAP	58	0	6
TAP	58	192	0
TAP	58	192	7
TTP	59	0	0	B	0	M1
TTP	59	0	2	B	0	M1
TTP	59	0	4	B	0	M1
TTP	59	0	6	B	0	M1
TTP	59	192	1	B	0	M1
TTP	59	192	3	B	0	M1
TTP	59	192	5	B	0	M1
TTP	59	192	7	B	0	M1
THO	60	0	0	192	C	1	M1
TTP	60	0	2	E	0	M1
TTP	60	0	6	E	0	M1
XTP	61	0	0
XTP	61	0	1
TAP	61	96	2
TAP	61	96	7
TAP	61	192	2
TAP	61	240	3
TAP	61	336	1
TAP	61	336	4
TAP	62	48	1
TAP	62	48	4
TAP	62	144	1
TAP	62	192	0
TAP	62	288	2
TAP	62	288	7
TAP	63	0	6
TAP	63	96	5
TAP	63	192	4
TAP	63	288	3
TAP	64	0	2
TAP	64	96	1
TAP	64	96	3
TAP	64	192	5
TAP	64	288	4
TAP	64	288	6
XTP	65	0	6
XTP	65	0	7
TAP	65	96	0
TAP	65	96	5
TAP	65	192	5
TAP	65	240	4
TAP	65	336	3
TAP	65	336	6
TAP	66	48	3
TAP	66	48	6
TAP	66	144	6
TAP	66	192	7
TAP	66	288	0
TAP	66	288	5
TAP	67	0	1
TAP	67	96	2
TAP	67	192	3
TAP	67	288	4
XTP	68	0	5
XTP	68	72	5
XTP	68	144	5
XTP	68	192	4
XTP	68	192	6
XTP	69	0	0
XTP	69	0	1
TAP	69	96	2
TAP	69	96	7
TAP	69	192	2
TAP	69	240	3
TAP	69	336	1
TAP	69	336	4
TAP	70	48	1
TAP	70	96	0
TAP	70	144	1
TAP	70	192	0
TAP	70	288	2
TAP	70	288	7
TAP	71	0	6
TAP	71	96	5
TAP	71	192	3
TAP	71	192	4
TAP	71	288	2
STR	72	0	1
SI_	72	0	1	96	144	6
STR	72	0	2
SI_	72	0	2	96	144	5
XTP	73	0	6
XTP	73	0	7
TAP	73	96	0
TAP	73	96	5
XTP	73	192	4
XTP	73	264	4
XTP	73	336	4
TAP	74	0	2
TAP	74	48	3
TAP	74	96	2
BRK	74	192	1
BRK	74	192	6
TAP	74	288	0
TAP	74	288	7
TAP	75	0	2
TAP	75	0	3
TAP	75	96	2
TAP	75	96	3
TAP	75	192	4
TAP	75	192	5
TAP	75	288	4
TAP	75	288	5
STR	76	0	2
SI_	76	0	2	96	144	7
STR	76	0	6
SI_	76	0	6	96	144	3
BRK	77	0	1
BRK	77	0	5
TTP	77	192	2	E	0	M1
TTP	78	0	6	E	0	M1
TTP	78	192	0	C	1	M1
HLD	79	0	1	384
TAP	79	0	3
TTP	80	0	1	B	0	M1
TTP	80	0	2	B	0	M1
TAP	81	0	4
HLD	81	0	6	384
TTP	82	0	5	B	0	M1
TTP	82	0	6	B	0	M1
HLD	83	0	2	384
TAP	83	0	3
TTP	84	0	1	B	0	M1
TTP	84	0	2	B	0	M1
TAP	85	0	4
HLD	85	0	5	384
TTP	86	0	5	B	0	M1
TTP	86	0	6	B	0	M1
HLD	87	0	2	576
HLD	87	0	3	192
TAP	88	0	3
TTP	88	192	1	B	0	M1
TTP	88	192	2	B	0	M1
TAP	89	0	4
HLD	89	0	5	384
TTP	90	0	5	B	0	M1
TTP	90	0	6	B	0	M1
HLD	91	0	3	384
TAP	91	0	4
TTP	92	0	1	B	0	M1
TTP	92	0	2	B	0	M1
TAP	93	0	3
HLD	93	0	4	384
TTP	94	0	0	C	1	M1
TTP	94	0	5	B	0	M1
TTP	94	0	6	B	0	M1
HLD	95	0	3	192
HLD	96	0	4	192
TAP	97	0	2
TAP	97	96	2
TAP	97	192	4
TAP	97	288	4
TAP	98	0	2
TAP	98	0	3
TAP	98	96	2
TAP	98	96	3
BRK	98	192	1
BRK	98	192	4
TAP	99	0	5
TAP	99	96	5
TAP	99	192	4
TAP	99	192	5
TAP	100	0	2
TAP	100	96	2
TAP	100	192	2
TAP	100	192	3
TAP	101	0	5
TAP	101	96	5
TAP	101	192	3
TAP	101	288	3
TAP	102	0	4
TAP	102	0	5
TAP	102	96	4
TAP	102	96	5
BRK	102	192	3
BRK	102	192	6
TAP	103	0	1
TAP	103	0	3
TAP	103	96	1
TAP	103	96	3
TAP	103	192	1
TAP	103	192	3
TAP	104	0	4
TAP	104	0	6
TAP	104	96	4
TAP	104	96	6
TAP	104	192	4
TAP	104	192	6
TAP	105	0	2
TAP	105	96	2
TAP	105	192	5
TAP	105	288	5
TAP	106	0	3
TAP	106	0	4
TAP	106	96	3
TAP	106	96	4
BRK	106	192	2
BRK	106	192	5
TAP	107	0	0
TAP	107	0	7
TAP	107	96	0
TAP	107	96	7
TAP	107	192	0
TAP	107	192	7
STR	108	0	3
SI_	108	0	3	96	96	1
STR	108	0	4
SI_	108	0	4	96	96	6
XTP	109	0	6
XTP	109	0	7
TAP	109	96	0
TAP	109	96	5
TAP	109	192	5
TAP	109	240	4
TAP	109	336	3
TAP	109	336	6
TAP	110	48	3
TAP	110	48	6
TAP	110	144	6
TAP	110	192	7
TAP	110	288	0
TAP	110	288	5
TAP	111	0	1
TAP	111	96	2
TAP	111	192	3
TAP	111	288	4
TAP	112	0	5
TAP	112	96	4
TAP	112	96	6
TAP	112	192	2
TAP	112	288	1
TAP	112	288	3
XTP	113	0	0
XTP	113	0	1
TAP	113	96	2
TAP	113	96	7
TAP	113	192	2
TAP	113	240	3
TAP	113	336	1
TAP	113	336	4
TAP	114	48	1
TAP	114	48	4
TAP	114	144	1
TAP	114	192	0
TAP	114	288	2
TAP	114	288	7
TAP	115	0	6
TAP	115	96	5
TAP	115	192	4
TAP	115	288	3
XTP	116	0	2
XTP	116	72	2
XTP	116	144	2
XTP	116	192	1
XTP	116	192	3
XTP	117	0	6
XTP	117	0	7
TAP	117	96	0
TAP	117	96	5
TAP	117	192	5
TAP	117	240	4
TAP	117	336	3
TAP	117	336	6
TAP	118	48	6
TAP	118	96	7
TAP	118	144	6
TAP	118	192	7
TAP	118	288	0
TAP	118	288	5
TAP	119	0	1
TAP	119	96	2
TAP	119	192	3
TAP	119	192	4
TAP	119	288	5
STR	120	0	5
SI_	120	0	5	96	144	1
STR	120	0	6
SI_	120	0	6	96	144	2
XTP	121	0	0
XTP	121	0	1
TAP	121	96	2
TAP	121	96	7
XTP	121	192	3
XTP	121	264	3
XTP	121	336	3
XTP	122	0	5
TAP	122	48	4
TAP	122	96	5
TAP	122	192	2
TAP	122	240	3
TAP	122	288	2
TAP	123	0	7
TAP	123	48	0
TAP	123	96	7
TAP	123	192	1
TAP	123	192	6
TAP	123	288	2
TAP	123	288	5
STR	124	0	3
SI_	124	0	3	96	96	0
TAP	124	96	6
STR	124	192	7
SI_	124	192	7	96	96	4
TAP	124	288	2
TAP	125	0	1
TAP	125	96	0
BRK	125	192	2
BRK	125	192	7
TAP	126	0	6
TAP	126	48	7
TAP	126	96	6
TAP	126	192	1
TAP	126	240	0
TAP	126	288	1
TAP	127	0	4
TAP	127	48	3
TAP	127	96	4
TAP	127	192	4
TAP	127	192	5
TAP	127	288	6
TAP	127	288	7
STR	128	0	1
SI_	128	0	1	96	96	4
TAP	128	96	6
STR	128	192	5
SI_	128	192	5	96	96	0
TAP	128	288	2
XTP	129	0	1
XTP	129	72	1
XTP	129	144	1
TTP	129	192	0	C	1	M1
XTP	130	0	0
XTP	130	0	1
TAP	130	96	2
TAP	130	96	7
TAP	130	192	5
TAP	130	240	4
TAP	130	288	5
TAP	131	0	6
TAP	131	0	7
TAP	131	96	0
TAP	131	96	5
TAP	131	192	1
TAP	131	192	4
BRK	131	288	2
BRK	131	288	3
STR	132	0	5
SI_	132	0	5	96	96	2
TAP	132	96	0
STR	132	192	1
SI_	132	192	1	96	96	6
TAP	132	288	4
TAP	133	0	4
TAP	133	96	3
TAP	133	96	5
TAP	133	192	2
TAP	133	192	6
TAP	133	288	1
TAP	133	288	7
XTP	134	0	0
XTP	134	0	5
XTP	134	96	2
XTP	134	96	7
XTP	134	192	1
XTP	134	192	6
XTP	134	264	1
XTP	134	264	6
XTP	134	336	1
XTP	134	336	6
XTP	135	0	0
XTP	135	48	7
XTP	135	96	0
BRK	135	192	1
BRK	135	192	6
XTP	136	0	0
XTP	136	0	1
TAP	136	96	2
TAP	136	96	3
TAP	136	192	4
TAP	136	192	5
TAP	136	288	6
TAP	136	288	7
STR	137	0	0
SF_	137	0	0	96	192	4
TAP	137	0	1
BRK	138	0	2
BRK	138	0	6
XTP	139	0	0
XTP	139	0	7
XTP	139	144	4
XTP	139	144	6
XTP	139	288	1
XST	139	288	3
SI_	139	288	3	96	576	6
THO	140	0	0	768	C	1	M1
TTP	142	0	7	E	0	M1
BRK	142	336	1
XTP	142	336	7
XTP	143	96	3
BRK	143	96	6
BRK	143	192	0
XTP	143	192	4
BRK	143	336	1
XTP	143	336	7
XTP	144	96	3
BRK	144	96	6
BRK	144	192	0
XTP	144	192	4
BRK	144	336	1
XTP	144	336	7
XTP	145	96	3
BRK	145	96	6
BRK	145	192	0
TTP	145	192	0	C	1	M1

T_REC_TAP	340
T_REC_BRK	33
T_REC_XTP	97
T_REC_HLD	17
T_REC_XHO	0
T_REC_STR	19
T_REC_BST	0
T_REC_XST	1
T_REC_TTP	54
T_REC_THO	3
T_REC_SLD	20
T_REC_ALL	584
T_NUM_TAP	511
T_NUM_BRK	33
T_NUM_HLD	20
T_NUM_SLD	20
T_NUM_ALL	584
T_JUDGE_TAP	544
T_JUDGE_HLD	74
T_JUDGE_SLD	20
T_JUDGE_ALL	638
TTM_EACHPAIRS	134
TTM_SCR_TAP	255500
TTM_SCR_BRK	85800
TTM_SCR_HLD	20000
TTM_SCR_SLD	30000
TTM_SCR_ALL	391300
TTM_SCR_S	376400
TTM_SCR_SS	388000
TTM_RAT_ACV	10085

