VERSION	0.00.00	1.03.00
FES_MODE	0
BPM_DEF	271.000	271.000	271.000	271.000
MET_DEF	4	4
RESOLUTION	384
CLK_DEF	384
COMPATIBLE_CODE	MA2

BPM	0	0	271.000
MET	0	0	4	4

THO	2	0	0	336	C	1	L1
TTP	4	0	7	E	0	L1
TTP	5	0	6	E	0	L1
TTP	6	0	5	E	0	L1
TTP	7	0	4	E	0	L1
TTP	8	0	3	E	0	L1
TTP	8	192	2	B	0	L1
TTP	9	0	1	B	0	L1
TTP	10	0	5	E	0	L1
TTP	10	192	5	B	0	L1
TTP	11	0	6	B	0	L1
TTP	12	0	2	E	0	L1
TTP	12	192	1	B	0	L1
TTP	13	0	0	B	0	L1
TTP	14	0	6	E	0	L1
TTP	14	192	6	B	0	L1
TTP	15	0	7	B	0	L1
TTP	16	0	4	E	0	L1
TTP	16	192	0	C	0	L1
TTP	17	0	0	E	0	L1
THO	18	0	0	384	C	1	L1
XTP	20	0	0
TAP	20	96	0
TAP	20	192	0
TAP	21	0	1
TAP	21	192	1
TAP	22	0	2
TAP	22	96	2
TAP	22	192	2
TAP	23	0	2
TAP	23	0	3
TAP	24	0	4
TAP	24	96	4
TAP	24	192	4
TAP	25	0	5
TAP	25	192	5
TAP	26	0	6
TAP	26	96	6
TAP	26	192	6
XTP	27	0	6
XTP	27	0	7
TAP	28	0	5
TAP	28	96	5
TAP	28	192	5
TAP	29	0	3
TAP	29	0	4
TAP	29	192	3
TAP	29	192	4
TAP	30	0	2
TAP	30	96	2
TAP	30	192	2
XTP	31	0	1
XTP	31	0	3
TAP	32	0	0
TAP	32	96	0
TAP	32	192	0
TAP	33	0	7
TAP	33	192	6
TAP	34	0	5
TAP	34	96	5
TAP	34	192	5
HLD	35	0	3	192
HLD	35	0	4	192
XTP	36	0	2
XTP	36	0	5
STR	37	0	5
SI_	37	0	5	96	480	2
STR	39	0	1
SI_	39	0	1	96	480	6
BST	41	0	5
SCL	41	0	5	96	480	2
TAP	43	0	1
TAP	43	192	1
TAP	44	0	0
TAP	44	0	7
STR	45	0	6
SI_	45	0	6	96	480	1
STR	47	0	2
SI_	47	0	2	96	480	5
STR	49	0	6
SCR	49	0	6	96	480	1
TAP	51	0	2
TAP	51	192	2
XTP	52	0	2
XTP	52	0	5
TTP	53	0	4	E	0	L1
TTP	54	0	3	B	0	L1
TTP	54	0	4	B	0	L1
TTP	55	0	0	C	0	L1
TTP	55	0	2	B	0	L1
TTP	55	0	5	B	0	L1
TTP	56	0	0	B	0	L1
TTP	56	0	1	E	0	L1
TTP	56	0	7	E	0	L1
TTP	56	0	7	B	0	L1
TTP	57	0	0	E	0	L1
TTP	58	0	1	E	0	L1
TTP	58	0	1	B	0	L1
TTP	58	0	6	B	0	L1
TTP	58	0	7	E	0	L1
THO	59	0	0	384	C	1	L1
XTP	61	0	0
TAP	61	96	0
TAP	61	192	1
TAP	61	288	1
TAP	62	0	2
TAP	62	0	3
TAP	62	192	1
TAP	62	192	4
TAP	63	0	4
TAP	63	96	4
TAP	63	192	5
TAP	63	288	5
TAP	64	0	6
TAP	64	0	7
TAP	64	192	0
TAP	64	192	5
TAP	65	0	7
TAP	65	96	7
TAP	65	192	6
TAP	65	288	6
TAP	66	0	4
TAP	66	0	5
TAP	66	192	3
TAP	66	192	6
TAP	67	0	3
TAP	67	96	3
TAP	67	192	4
STR	67	288	4
SI_	67	288	4	96	288	7
TAP	69	0	0
TAP	69	96	0
TAP	69	192	1
TAP	69	288	2
TAP	70	0	2
TAP	70	0	3
TAP	70	192	4
TAP	70	192	5
TAP	71	0	7
TAP	71	96	7
TAP	71	192	6
TAP	71	288	5
TAP	72	0	4
TAP	72	0	5
TAP	72	192	2
TAP	72	192	3
TAP	73	0	4
TAP	73	96	4
TAP	73	192	3
TAP	73	288	3
XTP	74	0	3
XTP	74	0	4
BRK	74	192	2
BRK	74	192	5
HLD	75	0	0	192
HLD	75	0	1	192
HLD	76	0	6	192
HLD	76	0	7	192
BRK	77	0	0
BRK	77	0	5
TTP	79	0	3	B	0	L1
TTP	79	0	4	B	0	L1
TTP	80	0	0	B	0	L1
TTP	80	0	7	B	0	L1
TTP	81	0	3	B	0	L1
TTP	81	0	4	B	0	L1
TTP	82	0	0	B	0	L1
TTP	82	0	7	B	0	L1
TTP	83	0	3	B	0	L1
TTP	83	0	4	B	0	L1
TTP	84	0	0	B	0	L1
TTP	84	0	7	B	0	L1
TTP	85	0	3	B	0	L1
TTP	85	0	4	B	0	L1
TTP	86	0	0	B	0	L1
TTP	86	0	7	B	0	L1
TTP	87	0	6	E	0	L1
TTP	88	0	7	B	0	L1
TTP	88	0	7	E	0	L1
TTP	89	0	2	E	0	L1
TTP	90	0	0	B	0	L1
TTP	90	0	1	E	0	L1
TTP	91	0	4	E	0	L1
TTP	92	0	3	E	0	L1
TTP	92	0	5	E	0	L1
THO	93	0	0	384	C	0	L1
TTP	93	0	1	B	0	L1
TTP	93	0	6	B	0	L1
STR	95	0	7
SI_	95	0	7	96	480	4
STR	97	0	3
SI_	97	0	3	96	480	0
STR	99	0	7
SCL	99	0	7	96	480	4
TAP	101	0	3
TAP	101	192	3
TAP	102	0	2
TAP	102	0	4
STR	103	0	1
SCL	103	0	1	96	480	6
STR	105	0	5
SCL	105	0	5	96	480	2
THO	107	0	0	384	C	1	L1
XTP	109	0	0
TAP	109	96	0
TAP	109	192	1
TAP	109	288	1
TAP	110	0	2
TAP	110	96	2
TAP	110	192	2
TAP	110	192	3
TAP	111	0	7
TAP	111	96	7
TAP	111	192	6
TAP	111	288	6
TAP	112	0	5
TAP	112	96	5
TAP	112	192	4
TAP	112	192	5
XTP	113	0	3
TAP	113	96	3
TAP	113	192	2
TAP	113	288	2
TAP	114	0	1
TAP	114	96	1
TAP	114	192	0
TAP	114	192	1
TAP	115	0	7
TAP	115	96	7
TAP	115	192	0
STR	115	288	0
SCR	115	288	0	96	288	3
TAP	117	0	4
TAP	117	96	4
TAP	117	192	3
TAP	117	288	3
TAP	118	0	2
TAP	118	96	2
TAP	118	192	1
TAP	118	192	4
TAP	119	0	3
TAP	119	96	3
TAP	119	192	4
TAP	119	288	4
TAP	120	0	5
TAP	120	96	5
XTP	120	192	3
XTP	120	192	6
TAP	121	0	0
TAP	121	0	7
TAP	121	96	0
TAP	121	96	7
BRK	121	192	1
BRK	121	192	6
TAP	122	0	2
TAP	122	96	2
TAP	122	192	1
TAP	122	192	3
TAP	123	0	5
TAP	123	96	5
TAP	123	192	4
TAP	123	192	6
TAP	124	0	7
TAP	124	96	7
TAP	124	192	6
TAP	124	288	5
TAP	125	0	4
TAP	125	0	5
TAP	125	96	4
TAP	125	96	5
TAP	125	192	3
TAP	125	192	6
TAP	126	0	5
TAP	126	96	5
TAP	126	192	4
TAP	126	192	6
TAP	127	0	2
TAP	127	96	2
TAP	127	192	1
TAP	127	192	3
TAP	128	0	0
TAP	128	96	0
TAP	128	192	7
STR	128	288	7
SCL	128	288	7	96	288	4
TAP	130	0	3
TAP	130	96	3
TAP	130	192	2
TAP	130	288	2
TAP	131	0	0
TAP	131	0	1
TAP	131	96	0
TAP	131	96	1
TAP	131	192	2
TAP	131	192	7
TAP	132	0	0
TAP	132	96	0
TAP	132	192	1
TAP	132	288	1
TAP	133	0	2
TAP	133	0	3
TAP	133	96	2
TAP	133	96	3
TAP	133	192	1
TAP	133	192	4
BRK	134	0	0
BRK	134	0	7
BRK	134	96	0
BRK	134	96	7
BRK	134	192	1
BRK	134	192	6
BRK	134	288	1
BRK	134	288	6
BRK	135	0	2
BRK	135	0	5
BRK	135	96	3
BRK	135	96	4
BRK	135	192	1
BRK	135	192	6
TAP	136	0	5
TAP	136	96	5
TAP	136	192	4
TAP	136	288	4
TAP	137	0	3
TAP	137	0	4
TAP	137	192	2
TAP	137	192	5
HLD	138	0	1	384
HLD	138	0	6	384
TAP	140	0	2
TAP	140	192	2
TAP	140	192	3
TAP	141	0	5
TAP	141	192	4
TAP	141	192	5
TAP	142	0	3
TAP	142	0	4
TAP	142	192	3
TAP	142	192	4
HLD	143	0	2	192
HLD	143	0	5	192
HLD	144	0	1	192
HLD	144	0	6	192
THO	145	0	0	192	C	0	L1

T_REC_TAP	201
T_REC_BRK	20
T_REC_XTP	16
T_REC_HLD	12
T_REC_XHO	0
T_REC_STR	13
T_REC_BST	1
T_REC_XST	0
T_REC_TTP	61
T_REC_THO	6
T_REC_SLD	14
T_REC_ALL	344
T_NUM_TAP	291
T_NUM_BRK	21
T_NUM_HLD	18
T_NUM_SLD	14
T_NUM_ALL	344
T_JUDGE_TAP	312
T_JUDGE_HLD	50
T_JUDGE_SLD	14
T_JUDGE_ALL	376
TTM_EACHPAIRS	62
TTM_SCR_TAP	145500
TTM_SCR_BRK	54600
TTM_SCR_HLD	18000
TTM_SCR_SLD	21000
TTM_SCR_ALL	239100
TTM_SCR_S	229900
TTM_SCR_SS	237000
TTM_RAT_ACV	10088

