VERSION	0.00.00	1.03.00
FES_MODE	0
BPM_DEF	271.000	271.000	271.000	271.000
MET_DEF	4	4
RESOLUTION	384
CLK_DEF	384
COMPATIBLE_CODE	MA2

BPM	0	0	271.000
MET	0	0	4	4

HLD	4	0	3	384
HLD	6	0	3	384
HLD	8	0	4	384
HLD	10	0	4	384
TAP	12	0	3
TAP	13	0	2
TAP	14	0	1
TAP	15	0	0
TAP	15	0	7
TAP	16	0	6
TAP	17	0	5
HLD	18	0	3	192
HLD	18	0	4	192
BRK	19	0	2
BRK	19	0	5
TAP	20	0	1
TAP	20	192	1
TAP	21	0	2
TAP	21	192	2
TAP	22	0	3
TAP	22	192	3
BRK	23	0	3
BRK	23	0	4
TAP	24	0	5
TAP	24	192	5
TAP	25	0	4
TAP	25	192	4
TAP	26	0	3
TAP	26	192	3
XHO	27	0	3	192
XHO	27	0	4	192
TAP	28	0	2
TAP	28	192	2
TAP	29	0	1
TAP	29	192	1
TAP	30	0	0
TAP	30	192	0
BRK	31	0	0
BRK	31	0	7
TAP	32	0	6
TAP	32	192	6
TAP	33	0	7
TAP	33	192	7
TAP	34	0	0
TAP	34	0	7
XHO	34	336	7	240
XHO	35	336	0	240
STR	37	0	7
SI_	37	0	7	96	672	4
STR	41	0	0
SI_	41	0	0	96	672	3
HLD	45	0	4	384
TAP	47	0	4
TAP	48	0	4
HLD	49	0	3	384
BRK	51	0	3
BRK	51	0	4
TTP	53	0	3	E	0	L1
TTP	53	0	5	E	0	L1
TTP	54	0	2	B	0	L1
TTP	54	0	5	B	0	L1
TTP	55	0	1	B	0	L1
TTP	55	0	6	B	0	L1
TTP	56	0	1	E	0	L1
TTP	56	0	7	E	0	L1
THO	57	0	0	768	C	1	L1
TAP	61	0	7
TAP	61	192	7
TAP	62	0	6
TAP	62	192	6
TAP	63	0	5
TAP	63	96	5
TAP	63	192	5
XTP	64	0	3
XTP	64	0	4
TAP	65	0	3
TAP	65	192	3
TAP	66	0	2
TAP	66	192	2
TAP	67	0	1
TAP	67	96	1
TAP	67	192	1
HLD	68	0	0	192
HLD	68	0	7	192
TAP	69	0	0
TAP	69	192	0
TAP	70	0	1
TAP	70	192	1
TAP	71	0	2
TAP	71	96	2
TAP	71	192	2
XTP	72	0	3
XTP	72	0	4
TAP	73	0	4
TAP	73	192	4
TAP	74	0	5
TAP	74	192	5
TAP	75	0	6
TAP	75	96	6
TAP	75	192	6
TAP	76	0	0
TAP	76	0	7
TAP	76	192	0
TAP	76	192	7
BRK	77	0	1
BRK	77	0	6
TTP	79	0	0	B	0	L1
TTP	81	0	7	B	0	L1
TTP	83	0	1	B	0	L1
TTP	85	0	6	B	0	L1
TTP	87	0	3	B	0	L1
TTP	89	0	4	B	0	L1
TTP	91	0	2	B	0	L1
TTP	93	0	5	B	0	L1
TTP	95	0	3	B	0	L1
TTP	95	0	4	B	0	L1
TTP	97	0	3	B	0	L1
TTP	97	0	4	B	0	L1
TTP	99	0	2	B	0	L1
TTP	99	0	5	B	0	L1
TTP	101	0	2	B	0	L1
TTP	101	0	5	B	0	L1
TTP	103	0	1	B	0	L1
TTP	103	0	6	B	0	L1
TTP	105	0	1	B	0	L1
TTP	105	0	6	B	0	L1
THO	107	0	0	384	C	1	L1
TAP	109	0	7
TAP	109	96	7
TAP	109	192	7
TAP	110	0	6
TAP	110	96	6
TAP	110	192	6
TAP	111	0	5
TAP	111	96	5
TAP	111	192	5
XTP	112	0	3
XTP	112	0	4
TAP	113	0	3
TAP	113	96	3
TAP	113	192	3
TAP	114	0	2
TAP	114	96	2
TAP	114	192	2
TAP	115	0	1
TAP	115	96	1
TAP	115	192	1
XHO	116	0	0	192
XHO	116	0	7	192
TAP	117	0	0
TAP	117	96	0
TAP	117	192	0
TAP	118	0	1
TAP	118	96	1
TAP	118	192	1
TAP	119	0	2
TAP	119	96	2
TAP	119	192	2
XHO	120	0	3	192
XHO	120	0	4	192
BRK	121	0	3
BRK	121	0	4
TAP	122	0	3
TAP	122	96	3
TAP	122	192	3
TAP	122	192	4
TAP	123	0	5
TAP	123	96	5
TAP	123	192	4
TAP	123	192	5
TAP	124	0	6
TAP	124	96	6
TAP	124	192	7
TAP	124	288	7
XHO	125	0	0	192
TAP	126	0	7
TAP	126	96	7
TAP	126	192	0
TAP	126	192	7
TAP	127	0	1
TAP	127	96	1
TAP	127	192	0
TAP	127	192	1
TAP	128	0	2
TAP	128	96	2
TAP	128	192	3
TAP	128	288	3
BRK	129	0	4
TAP	130	0	5
TAP	130	96	5
TAP	130	192	6
TAP	130	288	6
TAP	131	0	7
TAP	131	96	7
XTP	131	192	0
TAP	132	0	1
TAP	132	96	1
TAP	132	192	2
TAP	132	288	2
XTP	133	0	3
BRK	133	192	4
XHO	134	0	3	192
XHO	135	0	4	192
TAP	136	0	3
TAP	136	0	4
TAP	136	192	3
TAP	136	192	4
XTP	137	0	2
XTP	137	0	5
XTP	137	192	1
XTP	137	192	6
BRK	138	0	0
BRK	138	0	7
HLD	140	0	0	192
HLD	141	0	7	192
TAP	142	0	0
TAP	142	0	7
XHO	142	336	1	240
XHO	142	336	7	240
XHO	143	336	0	240
XHO	143	336	6	240
XHO	144	336	1	240
XHO	144	336	7	240

T_REC_TAP	132
T_REC_BRK	16
T_REC_XTP	12
T_REC_HLD	12
T_REC_XHO	17
T_REC_STR	2
T_REC_BST	0
T_REC_XST	0
T_REC_TTP	28
T_REC_THO	2
T_REC_SLD	2
T_REC_ALL	223
T_NUM_TAP	174
T_NUM_BRK	16
T_NUM_HLD	31
T_NUM_SLD	2
T_NUM_ALL	223
T_JUDGE_TAP	190
T_JUDGE_HLD	90
T_JUDGE_SLD	2
T_JUDGE_ALL	282
TTM_EACHPAIRS	31
TTM_SCR_TAP	87000
TTM_SCR_BRK	41600
TTM_SCR_HLD	31000
TTM_SCR_SLD	3000
TTM_SCR_ALL	162600
TTM_SCR_S	156200
TTM_SCR_SS	161000
TTM_RAT_ACV	10099

