VERSION	0.00.00	1.03.00
FES_MODE	0
BPM_DEF	136.000	136.000	136.000	136.000
MET_DEF	4	4
RESOLUTION	384
CLK_DEF	384
COMPATIBLE_CODE	MA2

BPM	0	0	136.000
MET	0	0	4	4
CLK	0	0
CLK	0	96
CLK	0	192
CLK	0	288

TAP	2	0	2
TAP	2	48	5
TAP	2	144	5
TAP	2	240	5
TAP	2	336	5
TAP	3	48	5
TAP	3	144	5
TAP	3	240	5
TAP	3	336	5
TTP	4	0	1	E	0	M1
TTP	4	96	5	B	0	M1
TTP	4	192	7	E	0	M1
TTP	4	264	1	B	0	M1
TTP	4	336	3	E	0	M1
TTP	5	0	1	E	0	M1
TTP	5	96	2	B	0	M1
TTP	5	192	5	E	0	M1
TTP	5	264	3	E	0	M1
TTP	5	336	1	E	0	M1
TTP	6	0	7	E	0	M1
TTP	6	96	1	B	0	M1
TTP	6	192	6	B	0	M1
TTP	6	264	1	E	0	M1
TTP	6	336	3	E	0	M1
TTP	7	0	1	B	0	M1
TTP	7	48	6	B	0	M1
TTP	7	96	7	E	0	M1
TTP	7	96	7	B	0	M1
TTP	7	192	1	E	0	M1
TAP	7	288	2
TAP	7	288	5
TTP	8	0	1	E	0	M1
TTP	8	96	5	B	0	M1
TTP	8	192	7	E	0	M1
TTP	8	264	1	B	0	M1
TTP	8	336	3	E	0	M1
TTP	9	0	1	E	0	M1
TTP	9	96	2	B	0	M1
TTP	9	192	5	E	0	M1
TTP	9	264	3	E	0	M1
TTP	9	336	1	E	0	M1
TTP	10	0	7	E	0	M1
TTP	10	96	1	B	0	M1
XTP	10	192	4
XTP	10	192	6
XTP	10	264	1
XTP	10	264	3
XHO	10	336	1	96
XHO	10	336	6	96
STR	11	96	2
SI_	11	96	2	96	48	5
STR	11	96	5
SI_	11	96	5	96	48	0
STR	12	0	1
SI_	12	0	1	96	48	6
TAP	12	24	3
HLD	12	72	3	24
STR	12	192	6
SI_	12	192	6	96	48	1
TAP	12	216	4
HLD	12	264	4	24
STR	13	0	1
SI_	13	0	1	96	48	6
TAP	13	24	3
HLD	13	72	3	24
STR	13	192	6
SI_	13	192	6	96	48	1
TAP	13	216	4
TAP	13	264	4
TAP	13	336	3
STR	14	0	1
SI_	14	0	1	96	48	6
TAP	14	24	3
HLD	14	72	3	24
STR	14	192	6
SI_	14	192	6	96	48	1
TAP	14	216	4
HLD	14	264	4	24
TAP	15	0	2
STR	15	0	5
SI_	15	0	5	96	48	1
HLD	15	48	2	48
TAP	15	240	1
TAP	15	240	4
TAP	15	288	2
TAP	15	288	3
STR	16	0	2
SI_	16	0	2	96	48	5
TAP	16	24	4
HLD	16	72	4	24
STR	16	192	5
SI_	16	192	5	96	48	2
TAP	16	216	3
HLD	16	264	3	24
STR	17	0	2
SI_	17	0	2	96	48	5
TAP	17	24	4
HLD	17	72	4	24
STR	17	192	5
SI_	17	192	5	96	48	2
TAP	17	216	3
TAP	17	264	3
TAP	17	336	4
STR	18	0	2
SI_	18	0	2	96	48	5
TAP	18	24	4
HLD	18	72	4	24
STR	18	192	5
SI_	18	192	5	96	48	2
TAP	18	216	3
HLD	18	264	3	24
TAP	19	0	3
TAP	19	0	5
TAP	19	96	2
XST	19	96	4
SI_	19	96	4	96	48	6
SCL	19	96	4	96	48	2
XST	19	192	4
SI_	19	192	4	96	48	0
SV_	19	192	4	96	48	7
STR	20	0	1
SI_	20	0	1	96	48	6
STR	20	0	2
SI_	20	0	2	96	48	5
TAP	20	192	7
TAP	20	216	6
TAP	20	288	3
TAP	20	312	4
TAP	20	336	3
TAP	21	0	5
TAP	21	24	4
TAP	21	48	5
TAP	21	96	7
TAP	21	144	0
TAP	21	192	1
TAP	21	240	2
TAP	21	240	3
HLD	21	264	2	72
HLD	21	264	3	72
BST	22	0	7
SI_	22	0	7	96	48	3
BST	22	96	0
SF_	22	96	0	96	48	4
HLD	22	288	1	96
HLD	22	288	6	96
STR	23	96	2
SXL	23	96	2	96	144	5
TAP	23	120	3
TAP	23	144	2
TAP	23	168	3
TAP	24	0	6
TAP	24	48	6
STR	24	96	1
SV_	24	96	1	96	96	3
STR	24	96	5
SCR	24	96	5	96	96	1
STR	25	0	6
SV_	25	0	6	96	48	5
TAP	25	24	4
TAP	25	48	6
TAP	25	72	4
STR	25	192	1
SV_	25	192	1	96	48	2
TAP	25	216	3
TAP	25	240	1
TAP	25	264	3
STR	26	0	3
SI_	26	0	3	96	48	0
TAP	26	0	4
STR	26	192	3
SUL	26	192	3	96	48	7
TAP	26	192	4
TAP	26	240	4
STR	27	0	3
SV_	27	0	3	96	48	0
TAP	27	0	4
TAP	27	72	4
TAP	27	96	4
TTP	27	240	6	E	0	M1
TTP	27	288	0	C	0	M1
TTP	27	336	2	E	0	M1
TAP	28	0	6
TAP	28	48	4
TAP	28	96	7
TAP	28	120	0
XTP	28	168	5
XTP	28	216	5
TAP	28	264	7
TAP	28	288	6
TAP	28	336	0
TAP	28	336	5
TAP	29	0	1
TAP	29	48	3
TAP	29	96	0
TAP	29	120	7
TAP	29	168	2
TAP	29	216	2
TAP	29	264	0
TAP	29	288	1
TAP	29	336	2
TAP	29	336	7
TAP	30	0	5
TAP	30	48	7
TAP	30	96	4
TAP	30	120	3
XTP	30	168	6
XTP	30	216	6
TAP	30	264	4
TAP	30	288	5
TAP	30	336	3
TAP	30	336	6
HLD	31	0	7	168
TAP	31	48	1
TAP	31	96	2
TAP	31	120	2
TAP	31	168	3
TAP	31	240	3
TAP	31	240	4
TAP	31	288	3
TAP	31	288	4
XHO	32	0	1	24
XHO	32	0	2	24
TAP	32	96	6
TAP	32	96	7
TAP	32	144	3
TAP	32	144	4
HLD	32	168	3	72
HLD	32	168	4	72
TAP	32	288	5
TAP	32	312	4
TAP	32	336	5
TAP	32	360	4
XHO	33	0	5	24
XTP	33	96	0
XTP	33	96	7
XHO	33	144	3	96
XHO	33	144	4	96
XST	33	288	3
SUR	33	288	3	96	288	4
XST	33	288	4
SCR	33	288	4	96	288	3
STR	35	0	3
SI_	35	0	3	96	48	1
SI_	35	0	3	96	48	6
TAP	35	24	4
TAP	35	48	3
TAP	35	72	4
XTP	35	96	3
TAP	35	240	0
BRK	35	288	2
BRK	35	288	7
STR	36	0	1
SI_	36	0	1	96	48	6
TAP	36	24	3
HLD	36	72	3	24
STR	36	192	6
SI_	36	192	6	96	48	1
TAP	36	216	4
HLD	36	264	4	24
STR	37	0	1
SI_	37	0	1	96	48	6
TAP	37	24	3
HLD	37	72	3	24
STR	37	192	6
SI_	37	192	6	96	48	1
TAP	37	216	4
TAP	37	264	4
TAP	37	336	3
STR	38	0	1
SI_	38	0	1	96	48	6
TAP	38	24	3
HLD	38	72	3	24
STR	38	192	6
SI_	38	192	6	96	48	1
TAP	38	216	4
HLD	38	264	4	24
XHO	39	96	3	192
XHO	39	96	4	192
STR	40	0	2
SI_	40	0	2	96	48	5
TAP	40	24	4
HLD	40	72	4	24
STR	40	192	5
SI_	40	192	5	96	48	2
TAP	40	216	3
HLD	40	264	3	24
STR	41	0	2
SI_	41	0	2	96	48	5
TAP	41	24	4
HLD	41	72	4	24
STR	41	192	5
SI_	41	192	5	96	48	2
TAP	41	216	3
TAP	41	264	3
TAP	41	336	4
STR	42	0	2
SI_	42	0	2	96	48	5
TAP	42	24	4
HLD	42	72	4	24
STR	42	192	5
SI_	42	192	5	96	48	2
TAP	42	216	3
HLD	42	264	3	24
TAP	43	0	4
HLD	43	24	3	96
TAP	43	72	5
TAP	43	120	5
TAP	43	168	2
TAP	43	168	3
TAP	43	216	1
TAP	43	240	4
TAP	43	288	3
TAP	43	312	4
TAP	43	336	3
TAP	44	0	1
TAP	44	0	6
TTP	44	240	1	B	0	M1
TTP	44	240	1	E	0	M1
TTP	44	240	2	B	0	M1
TTP	44	240	2	E	0	M1
TTP	44	240	3	E	0	M1
XTP	44	288	6
XST	44	288	7
SI_	44	288	7	96	48	3
BST	45	0	5
SI_	45	0	5	96	48	1
STR	45	96	2
SCR	45	96	2	96	48	5
STR	45	192	5
SCL	45	192	5	96	48	2
STR	45	288	1
SUR	45	288	1	96	48	6
STR	46	0	6
SCR	46	0	6	96	48	1
STR	46	96	3
SI_	46	96	3	96	48	0
STR	46	192	7
SI_	46	192	7	96	48	4
STR	46	288	1
SSR	46	288	1	96	96	5
STR	47	0	5
SSR	47	0	5	96	96	1
STR	47	96	1
SCR	47	96	1	96	48	4
STR	47	192	6
SCL	47	192	6	96	48	3
STR	47	288	0
SV_	47	288	0	96	48	1
STR	48	0	7
SV_	48	0	7	96	48	6
STR	48	96	3
SI_	48	96	3	96	48	0
STR	48	192	0
SI_	48	192	0	96	48	3
STR	48	288	4
SI_	48	288	4	96	48	0
STR	49	0	2
SI_	49	0	2	96	48	6
STR	49	96	5
SCL	49	96	5	96	48	2
STR	49	192	2
SCR	49	192	2	96	48	5
STR	49	288	6
SUL	49	288	6	96	48	1
STR	50	0	1
SCL	50	0	1	96	48	6
STR	50	96	4
SI_	50	96	4	96	48	7
STR	50	192	0
SI_	50	192	0	96	48	3
STR	50	288	6
SSL	50	288	6	96	96	2
STR	51	0	2
SSL	51	0	2	96	96	6
STR	51	96	6
SCL	51	96	6	96	48	3
HLD	51	192	1	96
TTP	51	288	0	C	0	M1
XTP	52	0	3
XTP	52	0	4
XTP	52	48	2
XTP	52	48	5
XTP	52	96	1
XTP	52	96	6
XTP	52	144	0
XTP	52	144	7
TTP	52	192	0	C	1	M1
TTP	52	192	2	B	0	M1
TTP	52	192	3	B	0	M1
TTP	52	192	4	B	0	M1
TTP	52	192	5	B	0	M1
XTP	52	288	6
XST	52	288	7
SI_	52	288	7	96	48	3
BST	53	0	5
SI_	53	0	5	96	48	1
STR	53	96	2
SCR	53	96	2	96	48	5
STR	53	192	5
SCL	53	192	5	96	48	2
STR	53	288	1
SUR	53	288	1	96	48	6
STR	54	0	6
SCR	54	0	6	96	48	1
STR	54	96	3
SI_	54	96	3	96	48	0
STR	54	192	7
SI_	54	192	7	96	48	4
STR	54	288	1
SSR	54	288	1	96	96	5
STR	55	0	5
SSR	55	0	5	96	96	1
STR	55	96	1
SCR	55	96	1	96	48	4
STR	55	192	6
SCL	55	192	6	96	48	3
STR	55	288	0
SV_	55	288	0	96	48	1
STR	56	0	7
SV_	56	0	7	96	48	6
STR	56	96	3
SI_	56	96	3	96	48	0
STR	56	192	0
SI_	56	192	0	96	48	3
TAP	56	288	7
TAP	57	0	2
TAP	57	24	3
TAP	57	48	2
TAP	57	72	3
TTP	57	96	0	C	1	M1
XTP	57	192	6
XTP	57	240	6
TTP	57	288	0	C	1	M1
XTP	58	0	1
XTP	58	0	6
XHO	58	48	1	96
XHO	58	48	6	96
TAP	58	192	0
TAP	58	192	5
TAP	58	264	3
TAP	58	264	4
TAP	58	336	2
TAP	58	336	3
BST	59	0	1
SLR	59	0	1	96	96	7
BST	59	0	6
SLL	59	0	6	96	96	0
TAP	59	288	3
TAP	59	288	4
TAP	60	0	0
TAP	60	0	7
TAP	60	48	6
TAP	60	96	5
TAP	60	144	4
TAP	60	192	3
TAP	60	240	2
TAP	60	288	1
XST	60	336	0
SI_	60	336	0	96	24	4
TAP	60	336	7
TAP	60	360	0
TAP	60	360	7
BRK	61	96	7
TTP	61	192	2	B	0	M1
TTP	61	192	3	E	0	M1
TTP	61	216	4	E	0	M1
TTP	61	216	4	B	0	M1
TTP	61	264	1	B	0	M1
TTP	61	264	1	E	0	M1
TTP	61	312	5	B	0	M1
TTP	61	312	6	E	0	M1
HLD	61	360	0	264
TTP	62	48	4	B	0	M1
TTP	62	144	5	B	0	M1
TTP	62	240	6	E	0	M1
TAP	62	288	7
STR	62	336	1
SCR	62	336	1	96	48	4
STR	62	360	4
SI_	62	360	4	96	24	0
TTP	63	192	1	E	0	M1
TTP	63	192	1	B	0	M1
TTP	63	216	0	E	0	M1
TTP	63	216	7	B	0	M1
TTP	63	264	2	B	0	M1
TTP	63	264	3	E	0	M1
TTP	63	312	6	E	0	M1
TTP	63	312	6	B	0	M1
HLD	63	360	1	192
TAP	64	48	3
TAP	64	96	4
TAP	64	144	5
TAP	64	168	5
STR	64	288	1
SCR	64	288	1	96	48	4
TAP	64	336	0
TAP	64	360	0
TAP	65	48	7
STR	65	96	6
SCL	65	96	6	96	48	3
TAP	65	144	7
TAP	65	168	7
TAP	65	240	0
STR	65	288	1
SXL	65	288	1	96	120	4
TAP	65	336	0
TAP	65	360	0
TAP	66	48	7
TAP	66	96	6
TAP	66	120	6
STR	66	168	5
SCR	66	168	5	96	48	0
TAP	67	0	1
TAP	67	0	7
TAP	67	48	0
TAP	67	96	5
TAP	67	96	7
TAP	67	144	6
HLD	67	192	3	72
TAP	67	192	5
HLD	67	264	0	72
TAP	67	336	1
STR	68	0	1
SLR	68	0	1	96	96	7
STR	68	48	4
SI_	68	48	4	96	48	6
TAP	68	96	4
TAP	68	288	0
TAP	68	288	5
STR	68	336	6
SI_	68	336	6	96	48	3
STR	68	336	7
SI_	68	336	7	96	48	2
TAP	68	360	6
TAP	68	360	7
TTP	69	192	5	E	0	M1
TTP	69	192	5	B	0	M1
TTP	69	216	3	B	0	M1
TTP	69	216	4	E	0	M1
TTP	69	264	6	B	0	M1
TTP	69	264	7	E	0	M1
TTP	69	312	2	E	0	M1
TTP	69	312	2	B	0	M1
HLD	69	360	7	264
TTP	70	48	3	B	0	M1
TTP	70	144	2	B	0	M1
TTP	70	240	2	E	0	M1
TAP	70	288	0
STR	70	336	6
SCL	70	336	6	96	48	3
STR	70	360	3
SI_	70	360	3	96	24	7
TTP	71	192	6	B	0	M1
TTP	71	192	7	E	0	M1
TTP	71	216	0	E	0	M1
TTP	71	216	0	B	0	M1
TTP	71	264	5	B	0	M1
TTP	71	264	5	E	0	M1
TTP	71	312	1	B	0	M1
TTP	71	312	2	E	0	M1
HLD	71	360	6	192
TAP	72	48	4
TAP	72	96	3
TAP	72	144	2
TAP	72	168	2
STR	72	288	6
SCR	72	288	6	96	48	1
TAP	72	336	1
TAP	72	360	1
STR	73	96	5
SCR	73	96	5	96	48	0
TAP	73	144	2
TAP	73	168	2
STR	73	288	4
SCR	73	288	4	96	96	2
TAP	73	336	3
HLD	73	360	3	120
STR	74	288	1
SCL	74	288	1	96	48	6
TAP	74	336	6
TAP	74	360	6
STR	75	96	2
SCL	75	96	2	96	48	7
TAP	75	144	5
TAP	75	168	5
STR	75	288	3
SF_	75	288	3	96	96	7
TAP	75	336	4
TAP	75	360	4
XTP	76	168	1
XTP	76	168	6
TAP	76	288	3
TAP	76	288	4
XHO	77	0	1	96
XHO	77	0	3	96
XHO	77	192	4	96
XHO	77	192	6	96
XST	78	0	3
SI_	78	0	3	96	48	0
XST	78	0	4
SI_	78	0	4	96	48	7
TAP	78	192	1
TAP	78	192	6
TAP	78	264	2
TAP	78	264	5
TAP	78	336	3
TAP	78	336	4
BST	79	0	3
SXR	79	0	3	96	192	0
BST	79	0	4
SXL	79	0	4	96	192	7
TTP	80	0	0	C	0	M1
TTP	80	0	1	B	0	M1
TTP	80	0	2	B	0	M1
TTP	80	0	5	B	0	M1
TTP	80	0	6	B	0	M1
XST	80	96	4
SI_	80	96	4	96	48	6
SCL	80	96	4	96	48	2
XST	80	192	4
SI_	80	192	4	96	48	0
SV_	80	192	4	96	48	7
TTP	81	48	0	E	0	M1
TTP	81	48	0	B	0	M1
TTP	81	48	0	C	1	M1
TTP	81	48	5	B	0	M1
TTP	81	48	6	B	0	M1
TTP	81	48	7	B	0	M1
XTP	84	336	5
XTP	84	352	4
XTP	84	368	3
XTP	85	0	2

T_REC_TAP	216
T_REC_BRK	3
T_REC_XTP	31
T_REC_HLD	37
T_REC_XHO	15
T_REC_STR	95
T_REC_BST	8
T_REC_XST	11
T_REC_TTP	97
T_REC_THO	0
T_REC_SLD	119
T_REC_ALL	632
T_NUM_TAP	450
T_NUM_BRK	11
T_NUM_HLD	52
T_NUM_SLD	119
T_NUM_ALL	632
T_JUDGE_TAP	461
T_JUDGE_HLD	99
T_JUDGE_SLD	119
T_JUDGE_ALL	679
TTM_EACHPAIRS	65
TTM_SCR_TAP	225000
TTM_SCR_BRK	28600
TTM_SCR_HLD	52000
TTM_SCR_SLD	178500
TTM_SCR_ALL	484100
TTM_SCR_S	468550
TTM_SCR_SS	483000
TTM_RAT_ACV	10022

